<?xml version="1.0" standalone="no"?>
<!DOCTYPE svg PUBLIC "-//W3C//DTD SVG 1.1//EN" "http://www.w3.org/Graphics/SVG/1.1/DTD/svg11.dtd">
<svg xmlns="http://www.w3.org/2000/svg">
<metadata>Generated by Fontastic.me</metadata>
<defs>
<font id="food-solid" horiz-adv-x="512">
<font-face font-family="food-solid" units-per-em="512" ascent="480" descent="-32"/>
<missing-glyph horiz-adv-x="512" />

<glyph unicode="&#97;" d="M323 166c-45 1-67 1-84 1-10 0-21-16-4-21 0 0 70-15 74-23 5-8-67-6-91-4-24 1-106 36-106 36 0 0-16 8-25-3-7-10 4-19 4-19l129-75 165 0 15-17 6 0 15 100c0 0-54 25-98 25m114-15l-20-131 95-20 0 141z m-42 51l0 12 31 0 0 21 38 0 0 36-464 0 0-36 39 0 0-21 30 0 0-12z m-123 268c-4 24-21 42-42 42-20 0-37-18-41-42-91-18-159-90-159-177l400 0c0 87-68 159-158 177z"/>
<glyph unicode="&#98;" d="M256 373c-108 0-195-95-195-211l390 0c0 116-87 211-195 211z m-236-242l24-131 424 0 24 131z m286 272c6 0 11 4 11 10l0 55c0 5-5 10-11 10-5 0-10-5-10-10l0-55c0-6 5-10 10-10z m-50 0c6 0 10 4 10 10l0 89c0 5-4 10-10 10-6 0-10-5-10-10l0-89c0-6 4-10 10-10z m-50 0c5 0 10 4 10 10l0 55c0 5-5 10-10 10-6 0-11-5-11-10l0-55c0-6 5-10 11-10z"/>
<glyph unicode="&#99;" d="M509 493c-3 7-12 19-39 19l-428 0c-27 0-36-12-39-19-4-8-7-25 13-48l49-55 140-162c10-11 23-19 36-22l0-185-49 0c-6 0-10-4-10-10 0-6 4-11 10-11l128 0c6 0 11 5 11 11 0 6-5 10-11 10l-49 0 0 185c13 3 26 11 36 22l148 171 41 46c20 23 17 40 13 48z m-29-34l-36-41c-1 0-1 0-2 0 0 0 0 0-1 0-1 1-3 1-5 1 0 0-1 0-1 0-2 0-3 1-5 1-1 0-1 0-2 0-2 0-4-1-6-1-12-2-20-10-27-16-5-4-9-9-14-9-1 0-1 0-2 0-6 1-15 7-22 12-9 5-17 11-26 13-15 3-44 0-55-2-16-3-30-9-42-14-17-8-33-15-52-11-7 2-15 7-23 11-10 6-19 11-29 13-1 0-2 0-4 0 0 0-1 0-1 0 0 0-1 0-1 0-6 0-13-2-19-4-4-2-9-3-11-3-4-1-7-1-11-1-1 0-2 0-3 0-1 0-2 0-3 0l-45 51c-10 12-12 21-10 25 2 4 9 7 20 7l428 0c11 0 18-3 20-7 2-4 0-13-10-25z"/>
<glyph unicode="&#100;" d="M278 384c-6 0-11 5-11 11l0 53c0 6 5 11 11 11 6 0 11-5 11-11l0-53c0-6-5-11-11-11z m-65 0c-6 0-11 5-11 11l0 106c0 6 5 11 11 11 6 0 11-5 11-11l0-106c0-6-5-11-11-11z m-65 0c-6 0-11 5-11 11l0 53c0 6 5 11 11 11 6 0 11-5 11-11l0-53c0-6-5-11-11-11z m364-166c-3 18-12 25-19 29-21 9-52-7-67-16 0 4 0 9 0 13l0 0c0 0 0 0 0 0 0 1 0 3 0 4 0 60-95 109-213 109-118 0-213-49-213-109 0-1 0-3 0-4l0 0c0-135 95-244 213-244 58 0 111 27 150 71 2-2 4-3 7-3 0 0 0 0 1 0 43 4 84 38 108 68 24 29 35 59 33 82z m-299 117c113 0 191-46 191-87 0-41-78-87-191-87-113 0-191 46-191 87 0 41 78 87 191 87z m249-185c-23-30-55-52-83-59 23 33 39 72 45 115 2 0 5 0 7 2 15 10 42 24 53 19 1-1 5-2 6-11 2-18-8-42-28-66z"/>
<glyph unicode="&#101;" d="M207 272c21 0 41 2 61 5 3 0 6 3 8 6 1 4 1 8-1 11l-54 76 142-58c3-1 7-1 10 1 27 18 41 40 41 63 0 58-91 103-207 103-116 0-207-45-207-103 0-58 91-104 207-104z m207-11l0 59c-6-7-13-13-22-20l0-30-51 21 50-103c1-1 1-3 1-5l-1-150c99 4 121 75 121 75l0 114z m-90-67l-48 16 0 47c-1-1-3-2-5-2-21-3-42-5-64-5-94 0-171 29-207 71l0-115c0 0 0 0 0-1 0 0 0 0 0-1 0-58 92-103 209-103 19 0 39 1 58 4 5 1 9 5 9 11l0 71 48-16 0-20 45-104 1 134-46 95z"/>
<glyph unicode="&#102;" d="M509 381c-14 67-80 119-150 119-38 0-75-15-108-43-29-25-47-60-70-134-22-71-73-136-73-137-2-2-3-5-2-8 0-3 1-5 4-7l16-13c-6-8-17-21-27-34-7 21-26 36-49 36-27 0-50-23-50-50 0-28 23-51 50-51 6 0 11 1 16 3 0-28 23-50 50-50 28 0 51 23 51 51 0 27-22 50-50 50 10 12 20 25 26 32l19-14c2-2 4-3 7-3 0 0 1 0 1 0 3 1 6 3 7 5 1 0 35 48 150 51 63 2 116 26 151 70 29 36 40 83 31 127z m-459-301c-16 0-29 13-29 30 0 16 13 29 29 29 16 0 30-13 30-29 0-17-14-30-30-30z m95-17c0-16-13-29-29-29-16 0-29 13-29 29 0 16 13 29 29 29 16 0 29-13 29-29z"/>
<glyph unicode="&#103;" d="M203 360c-24 24-76 16-76 16 38-13 62-45 68-54-6-3-12-7-18-11l79-34 79 34c-13 9-27 16-41 20 28 32 81 28 81 28-47 38-108 10-108 10 12 37 56 58 56 58-34-5-56-14-69-22-1 83 35 107 35 107-43-24-60-83-65-101-34 55-108 67-108 67 72-43 87-118 87-118z m-45-65c-21-21-37-49-45-81l115 51z m246-122c0 5 0 10-1 15l-147 64-147-64c-1-5-1-10-1-15l148-65z m-295-25c4-34 16-65 35-89l84 37z m175 117l115-50c-8 31-24 59-45 80z m-125-224c26-25 60-41 97-41 37 0 71 16 97 41l-97 43z m210 18c18 24 31 55 34 89l-119-52z"/>
<glyph unicode="&#104;" d="M13 29l487 0 0-29-487 0z m207 363c5-3 11-2 15 2 3 5 2 12-3 15 0 1-3 3-3 15 0 7 1 9 7 16l2 2c7 8 15 19 20 28 1 3 3 6 4 9 2-2 4-4 6-5 12-10 23-19 27-33 4-16 1-29-10-40-5-3-5-10-1-15 2-2 5-3 8-3 2 0 5 1 7 3 17 15 23 37 16 61-5 20-20 32-34 43-7 6-14 12-19 18-4 4-9 5-14 3-4-3-6-8-4-13 0-2 0-8-5-19-4-7-11-16-17-23l-2-2c-8-9-13-16-12-31 0-6 1-23 12-31z m224-136l-152 0 0 105-27 0c1 2 2 4 2 6l0 34c0 5-5 10-11 10-6 0-11-5-11-10l0-34c0-2 1-4 2-6l-27 0 0-105-152 0c-21 0-39-16-39-36l0-122c0-20 18-36 39-36l376 0c22 0 39 16 39 36l0 122c0 20-17 36-39 36z m-319-141c-25 0-45 20-45 44 0 25 20 45 45 45 24 0 44-20 44-45 0-24-20-44-44-44z m131 0c-25 0-44 20-44 44 0 25 19 45 44 45 25 0 44-20 44-45 1-24-19-44-44-44z m131 0c-24 0-44 20-44 44 0 25 20 45 44 45 25 0 45-20 45-45 0-24-20-44-45-44z"/>
<glyph unicode="&#105;" d="M248 255l-3 63c-5-2-10-5-15-7-10-5-19-9-29-14z m116 111c-15-5-31-11-48-17l44-38z m-227-163l-9 53c-13-8-26-16-38-24z m374 176c-9 18-57 14-125-6 1-1 1-2 1-4l-7-81c-1-5-3-8-7-10-1 0-3-1-4-1-3 0-5 1-8 3l-64 56c-2 1-3 2-3 4-9-4-19-8-28-12 1-1 1-3 1-4l4-95c1-5-2-9-6-11-1-1-3-1-5-1-2 0-5 1-7 3l-70 63c-1 1-1 2-2 3-11-6-22-12-33-18 1-1 1-2 1-4l14-81c1-5-1-9-5-12-2-1-4-1-6-1-2 0-4 0-6 1l-72 44c-1 1-2 2-3 3-50-36-78-68-70-85 15-30 141 0 281 68 141 68 243 147 229 178z"/>
<glyph unicode="&#106;" d="M460 262c-26 61-107 107-204 107-97 0-178-46-204-107z m-412-30l0-159c0-40 35-73 77-73l262 0c42 0 77 33 77 73l0 159z m245 153l-74 0c-6 0-11 5-11 11 0 6 5 11 11 11l74 0c6 0 11-5 11-11 0-6-5-11-11-11z m6 36c-6 0-11 5-11 11l0 45c0 7 5 11 11 11 6 0 11-4 11-11l0-45c0-6-5-11-11-11z m-43 0c-6 0-11 5-11 11l0 69c0 6 5 11 11 11 6 0 11-5 11-11l0-69c0-6-5-11-11-11z m-43 0c-6 0-11 5-11 11l0 45c0 7 5 11 11 11 6 0 11-4 11-11l0-45c0-6-5-11-11-11z"/>
<glyph unicode="&#107;" d="M378 325l134 41-146 146-42-133-2 2c-23 23-59 26-80 5l-116-116c-21-21-18-57 5-80l5-6-136-38 146-146 40 135 3-3c24-24 60-26 80-6l117 117c20 20 18 56-6 80z"/>
<glyph unicode="&#108;" d="M337 476c-15 0-29-5-40-13-2 27-24 49-52 49-22 0-41-14-49-33-11 16-30 27-51 27-35 0-63-29-63-63 0-7 1-13 3-19-9-9-14-20-14-33 0-10 3-19 8-26 2 3 4 7 7 10 9 10 22 15 35 15l212 0c13 0 26-5 35-15 4-5 8-10 10-16 15 12 25 30 25 51 0 37-29 66-66 66z m61-177l-8 1c-15 1-28-4-38-14l6 55c1 15-10 27-25 27l-212 0c-15 0-26-12-25-27l31-314c2-15 16-27 31-27l138 0c15 0 29 12 30 27l10 100c8-12 21-20 36-22l8 0c1 0 3 0 4 0 25 0 46 19 48 43l9 99c2 26-17 50-43 52z m-215-112c-11 0-21 10-21 21 0 12 10 21 21 21 12 0 21-9 21-21 0-11-9-21-21-21z m59-113c-15 0-27 12-27 27 0 15 12 27 27 27 15 0 27-12 27-27 0-15-12-27-27-27z m33 170c-15 0-27 12-27 27 0 14 12 26 27 26 15 0 27-12 27-26 0-15-12-27-27-27z m135-94c-2-14-14-24-28-23l-8 1c-14 1-25 13-23 27l9 100c1 13 12 23 25 23 1 0 2 0 3 0l8-1c14-1 24-14 23-28z"/>
<glyph unicode="&#109;" d="M49 319c6 0 11 5 11 11l0 77c0 6-5 11-11 11-6 0-11-5-11-11l0-77c0-6 5-11 11-11z m39 99c-6 0-11-5-11-11l0-77c0-15-13-27-28-27-15 0-27 12-27 27l0 77c0 6-5 11-11 11-6 0-11-5-11-11l0-77c0-23 16-42 38-47l0-178c0-6 5-11 11-11 6 0 11 5 11 11l0 178c22 5 39 24 39 47l0 77c0 6-5 11-11 11z m180-84c-43 0-78-35-78-78 0-43 35-78 78-78 43 0 78 35 78 78 0 43-35 78-78 78z m0 73c-84 0-151-68-151-151 0-83 67-151 151-151 83 0 151 68 151 151 0 83-68 151-151 151z m0-251c-55 0-100 45-100 100 0 55 45 100 100 100 55 0 100-45 100-100 0-55-45-100-100-100z m244 251l0-302-38 0 9 89c0 0-31 1-22 36 9 35 13 165 51 177z"/>
<glyph unicode="&#110;" d="M357 283c0 0 0 0 0 0 0 102-11 210-141 210-124 0-141-101-141-210 0 0 0 0 0 0-33-41-54-95-54-156 0-14 1-28 3-42 1-5 6-9 11-9l363 0c5 0 9 4 10 9 2 14 4 28 4 42 0 61-21 115-55 156z m-158 86c0 9 8 17 17 17 10 0 17-8 17-17 0-8-5-14-12-17-2 0-3 1-5 1-1 0-3-1-5-1-7 3-12 9-12 17z m50-20c4 6 6 13 6 20 0 21-17 38-39 38-21 0-38-17-38-38 0-7 2-14 5-20-32-6-61-21-86-43 3 100 27 166 119 166 94 0 117-61 119-166-24 22-54 37-86 43z m169-330l-404 0c-8 0-14 6-14 14 0 8 6 14 14 14l404 0c8 0 14-6 14-14 0-8-6-14-14-14z m94 270l-7 38c0 0-61-23-69-78-3-19-8-32-15-40 8-26 12-54 12-82 0-3 0-6 0-10 21 8 44 30 37 88-8 64 42 84 42 84z"/>
<glyph unicode="&#111;" d="M512 357c0 86-64 155-144 155-45 0-86-22-112-58-26 36-67 58-112 58-80 0-144-69-144-155 0-58 30-108 74-134 17-6 35-9 55-9 24 0 47 5 69 14 6 3 14 0 18-5 3-6 1-12-6-15-25-11-53-16-81-16-12 0-23 1-34 3l0-195 311 0 0 208 3 1c59 19 103 78 103 148z"/>
<glyph unicode="&#112;" d="M293 392c-4 0-7 1-9 4-4 5-3 12 2 15 11 9 15 21 10 35-4 11-14 19-27 28-2 2-5 4-7 6-1-3-3-6-4-8-5-9-14-19-21-26l-2-2c-7-7-7-8-7-13 1-10 3-12 3-13 5-3 7-10 4-15-4-5-10-6-15-3-13 8-13 24-14 30 0 14 5 21 13 29l2 2c6 6 14 15 18 21 4 8 5 14 5 15-3 5-1 10 4 13 4 3 10 2 14-2 5-6 12-11 20-16 14-10 29-21 35-40 7-23 1-43-18-58-2-1-4-2-6-2z m105-235l0 121-105 0 0 96-26 0 0 35c0 6-5 11-11 11-6 0-11-5-11-11l0-35-26 0 0-96-105 0 0-121-109 0 0-157 502 0 0 157z m-305-119c0-6-5-11-11-11-6 0-11 5-11 11l0 64c0 6 5 11 11 11 6 0 11-5 11-11z m87 0c0-6-5-11-11-11-6 0-11 5-11 11l0 64c0 6 5 11 11 11 6 0 11-5 11-11z m15 169c-3-1-9-3-15-3-6 0-11 1-15 5-5 4-5 11-1 15 3 4 10 5 14 2 2 0 8 0 11 1 6 2 12-1 14-7 1-5-2-12-8-13z m72-169c0-6-5-11-11-11-6 0-11 5-11 11l0 64c0 6 5 11 11 11 6 0 11-5 11-11z m2 169c-3-1-9-3-15-3-6 0-11 1-15 5-5 4-5 11-1 15 3 4 10 5 14 2 2 0 8 0 11 1 6 2 12-1 14-7 1-5-2-12-8-13z m44 2c-5 4-5 11-1 15 3 4 10 5 14 2 2 0 8 0 11 1 6 2 12-1 14-7 1-5-2-12-8-13-3-1-9-3-15-3-6 0-11 1-15 5z m41-171c0-6-5-11-11-11-6 0-11 5-11 11l0 64c0 6 5 11 11 11 6 0 11-5 11-11z m87 0c0-6-5-11-11-11-6 0-11 5-11 11l0 64c0 6 5 11 11 11 6 0 11-5 11-11z"/>
<glyph unicode="&#113;" d="M294 204c-28 0-55 1-81 3-51 5-138 19-138 55 0 46 143 58 219 58 75 0 218-12 218-58 0-46-143-58-218-58z m0 95c-130 0-197-26-197-37 0-6 29-25 118-33 25-3 51-4 79-4 130 0 197 26 197 37 0 11-67 37-197 37z m52 60c-6 0-11 4-11 10l0 61c0 5 5 10 11 10 5 0 10-5 10-10l0-61c0-6-5-10-10-10z m-52 0c-6 0-11 4-11 10l0 97c0 6 5 11 11 11 6 0 10-5 10-11l0-97c0-6-4-10-10-10z m-52 0c-6 0-11 4-11 10l0 61c0 5 5 10 11 10 6 0 10-5 10-10l0-61c0-6-4-10-10-10z m52-39c-48 0-124-5-172-20l-108 41c-5 2-11-1-13-6-2-6 0-12 6-14l87-33c-12-7-19-16-19-26 0-125 98-227 219-227 120 0 218 102 218 227 0 46-143 58-218 58z m-29-49l42-16c12-4 20-16 21-29-11-1-22-1-34-1-25 0-49 1-72 3-2 7-2 15 1 22 3 9 9 17 18 20 8 4 16 4 24 1z m29 28c61 0 109-6 142-13-5-1-9-2-13-3-7-1-11-5-15-8-2-2-4-3-5-4-5-2-12-4-16-3-2 1-5 3-7 6-2 2-4 3-6 5-9 7-20 9-32 7-5-1-18-5-26-11l-1 0c-1 0-1 0-1 0 0 0 0 0 0 0l-41 16c-14 5-28 5-41-1-11-5-19-13-25-23l-51 20c33 6 79 12 138 12z m-94-52c-1-6-1-11 0-17-77 9-103 27-103 32 0 4 8 9 24 15z"/>
<glyph unicode="&#114;" d="M61 158c16 33 16 71 13 101 0 4-1 8-2 13-2 18-4 39 3 56 5 14 17 23 29 32 7 6 13 11 17 16 4 4 7 8 10 13 9 13 21 29 37 37 33 18 72 20 101 20 9 0 19-1 28-1 19-1 38-2 55 1 29 4 45 11 54 17-42 31-94 49-150 49-141 0-256-115-256-256 0-45 12-87 32-124 12 4 23 14 29 26z m362 292c-14-12-36-21-68-25-19-3-39-2-58-1-10 0-19 1-28 1-27 0-62-2-91-18-12-6-21-19-30-31-3-4-7-9-10-13-6-7-14-14-21-19-10-8-19-16-23-25-5-11-2-29 0-44 0-5 1-10 1-14 3-33 4-75-15-113-8-16-21-28-37-35 47-68 125-113 213-113 141 0 256 115 256 256 0 77-34 147-89 194z m-167-277c-46 0-83 37-83 83 0 46 37 83 83 83 46 0 83-37 83-83 0-46-37-83-83-83z"/>
<glyph unicode="&#115;" d="M0 358l0-284c0-22 15-40 34-40l34 0 0-11c0-6 5-11 11-11 6 0 11 5 11 11l0 11 332 0 0-11c0-6 5-11 12-11 6 0 11 5 11 11l0 11 33 0c19 0 34 18 34 40l0 284z m409-193c0-25-17-45-38-45l-230 0c-21 0-38 20-38 45l0 75c0 25 17 45 38 45l230 0c21 0 38-20 38-45z m103 223l0 73c0 21-15 39-34 39l-444 0c-19 0-34-18-34-39l0-73z m-237 55l22 0c9 0 16-7 16-15 0-8-7-15-16-15l-22 0c-9 0-16 7-16 15 0 9 7 15 16 15z m-73 0l22 0c9 0 16-7 16-15 0-8-7-15-16-15l-22 0c-9 0-15 7-15 15 0 9 6 15 15 15z m-73 0l23 0c8 0 15-7 15-15 0-8-7-15-15-15l-23 0c-8 0-15 7-15 15 0 9 7 15 15 15z m-73 0l23 0c8 0 15-7 15-15 0-8-7-15-15-15l-23 0c-8 0-15 7-15 15 0 9 7 15 15 15z"/>
<glyph unicode="&#116;" d="M237 219c-2 1-5 1-8 0-4-2-8-6-11-12-3-6-5-13-6-23l1 0c1 10 3 18 6 23 4 6 7 9 11 11 2 1 5 1 7 0 2 0 3-2 4-4 2-3 2-7 0-12-2-5-4-10-8-15-4-4-8-8-12-10-4-1-7-2-10-1-3 1-5 3-6 5-1 2-1 5-1 8 0 4 0 8 1 13 2 4 3 10 5 17 10 7 18 14 25 22 7 8 13 16 17 23 3 7 4 12 3 15-2 4-4 5-8 3-4-2-8-5-12-10-4-5-9-10-13-17-3-7-7-13-10-20-4-7-6-14-8-19-8-4-14-6-18-5-5 1-8 4-10 8-1 2-1 5-1 8 0 3 1 7 3 11 2 4 6 9 11 14 6 5 14 9 24 14l-1 1c-9-5-17-9-22-14-6-4-10-9-12-13-3-4-4-8-4-12 0-4 0-6 1-9 2-4 5-7 10-9 4-1 10 0 18 4-2-7-4-13-4-18 0-4 1-9 2-13 2-4 5-7 8-8 4-1 8 0 12 2 4 1 7 3 10 6 3 3 6 7 8 11 2 4 3 7 4 11 1 4 0 7-1 9-1 3-3 4-5 5z m-16 27c4 8 8 16 13 22 4 7 9 11 14 13 2 1 4 1 6-2 1-2 0-6-1-10-2-4-4-9-8-15-4-5-9-11-15-17-6-6-12-11-19-16 3 8 6 17 10 25z m-22 0c0 0 0 0-3-3-5-4-8-8-8-9-2-4-2-6-2-7 0-2 0-3 0-3 1-1 1-1 1-1 0-1 1-1 1-1 0 0 0 0 0 0 2 0 2 0 2 0 3 1 7 6 9 12 0 0 0 0 3 5 2 4 2 4 2 4 2 5 0 6-5 3z m30-44c0 0 0 0 0-1-1-1-1-1-1-1-1-2-1-2 0-1 1 1 2 4 1 3z m115 288l22 0c6 0 10 5 10 11 0 6-4 11-10 11l-220 0c-6 0-10-5-10-11 0-6 4-11 10-11l22 0-40-52 0-396c0-23 58-42 128-42 70 0 128 19 128 42l0 396z m4-244c-1-2-5-10-9-17 0 0 0 0-1-3-3-5-3-5-3-5-5-3-9-6-9-6-1 0-2 0-3 0-1-1-3-1-3 0 0 0-3-2-5-5 0 0 0 0-3-1-2-1-4-1-6-1-2 0-2 0-2 0-1 0-5-3-9-6 0 0 0 0-3-2-2-1-4-1-6-1-2 0-4 0-6 1-1 1-1 1-1 1-1 1-7-5-12-12 0 0 0 0-6-2-2-1-2-1-2-1-2 0-4-1-5-1 0 0 0 0-1 0 0 0-3 1-4 1-1 1-4-3-7-7 0 0 0 0-3-3-4-4-9-7-13-9-5-2-9-3-13-3-2 0-5 0-7 1-5 1-11 5-15 14-2 6-3 12-3 18 0 1 0 1 0 1 0 0-2 1-4 1 0 0 0 0-2 1-8 2-14 7-17 15-2 4-2 8-2 14 0 5 2 10 5 16 3 6 8 11 15 17 6 5 6 5 6 5 10 5 21 11 24 12 3 1 6 0 7-2 1-2 3-2 5 0 0 0 0 0 2 2 5 6 10 11 16 13 2 1 5 2 7 2 6 0 12-4 15-10 2-7 1-15-4-25-4-8-10-16-18-25-1-1-1-1-1-1-1-2-2-3-1-3 0 0 0 0 0 0 1-1 1-1 1-1 2-1 4-1 5 0 0 0 0 0 0 1 5 4 9 8 13 10 3 1 5 1 7 1 2 0 2 0 2 0 1 0 4 3 5 8 2 5 3 8 4 6 1-2 2-2 2-2 0 1 4 10 7 19 3 9 6 19 7 21 1 3 9 8 18 12 9 4 12-4 8-18-5-13-6-24-5-24 1 1 6 3 12 6 6 4 11 7 11 7 1 1 1 1 1 0 0 0 2 1 4 2 2 1 3-1 2-5-1-3 0-10 2-14 2-5 2-10 1-13z m-13 0c-2-4-4-7-5-9-2-3-3-5-4-7-1-2-3-3-3-3-1 0-2 0-2 0 0 2 1 8 5 19 0 1 1 2 1 4 0 1 1 3 2 5l0 3-5-3-2-7c0 1 0 1 0 1 0 1-1 1-1 1 0 1 0 1 0 1 0 1-1 2-2 2-1 0-2 0-3-1-3-1-5-3-8-5-2-2-4-5-6-7-1-3-2-5-2-8-1-1-2-4-3-6-2-5-4-8-6-11-1-2-3-3-4-4-1 0-2 0-2 1-1 1 1 5 3 13l22 68-5-3-2-5c-7-20-11-32-13-35l-11-24 0 1c-1-5-3-8-6-9-1 0-1 0-2 0 1 4 1 7 0 9-1 3-3 4-6 3-3-2-6-4-9-8-3-3-5-7-7-11-1-4-1-8 0-11 1-1 1-2 2-3 1 0 2-1 3-1 1 0 2 0 3 1 5 2 10 9 14 19 0 1 1 1 1 1 0 0 1 0 1 0 3 1 5 3 6 7 5 11 9 19 11 23 0-2-1-4-2-7 0-2-1-3-1-4-2-5-3-10-4-15-1-4-1-7 0-9 0-1 1-2 2-2 1 0 1 0 2 0 3 1 5 3 7 7 1 3 3 7 5 12 0-2 1-4 1-6 1-2 2-3 4-4 1 0 3-1 4 0 3 1 7 7 10 15 0-3 1-5 2-7 0-2 1-2 2-1 3 0 4 2 6 5 2 3 5 8 8 15l2 5 0 1c-1 0-2-2-3-6z m-65-28c-2-5-3-9-6-13-2-4-4-6-7-7-1-1-2-1-3-1-1 1-1 1-1 2-1 1 0 3 1 8 1 5 2 9 4 14 2 4 5 7 7 8 1 0 2 0 3 0 1 0 2-1 2-2 1-2 1-5 0-9z m49 23c-1-5-3-9-5-13-3-5-5-7-7-8 0 0-1 0-2 0 0 0-1 1-1 1-1 2-1 5 0 9 1 5 3 9 5 13 2 5 5 7 7 8 2 1 3 1 4-1 1-2 1-5-1-9z"/>
<glyph unicode="&#117;" d="M307 186c-111 0-200-42-200-93 0-51 89-93 200-93 110 0 200 42 200 93 0 51-90 93-200 93z m100-83c-1-12-7-17-18-23-26-13-57-19-85-21-16-1-37-2-52 1-11 2-23 10-30 17-7 7-12 14-14 23-2 8-5 20 5 25 6 4 20 4 25-2 6-8-1-18 15-18 13 0 18 13 29 17 10 4 18 4 29 4 13 0 21-3 30-10 7-5 14-11 23-11 17-1 11 29 32 22 2-1 4-3 6-5l1 0c5-1 5-15 4-19z m-193 314c6 0 11 4 11 10l0 44c0 6-5 11-11 11-6 0-11-5-11-11l0-44c0-6 5-10 11-10z m-58 0c6 0 11 4 11 10l0 74c0 6-5 11-11 11-6 0-11-5-11-11l0-74c0-6 5-10 11-10z m-58 0c6 0 11 4 11 10l0 44c0 6-5 11-11 11-6 0-11-5-11-11l0-44c0-6 5-10 11-10z m208-196c9-7 21-11 33-11l5 0c29 0 54 23 54 53l0 63c0 30-25 54-54 54l-5 0c-12 0-23-5-32-11l0 15-302 0 0-154c0-50 35-94 84-114 20 53 105 91 215 91 1 5 2 9 2 14z m1 105c0 18 14 32 32 32l5 0c17 0 32-14 32-32l0-63c0-18-15-32-32-32l-5 0c-18 0-32 14-32 32z"/>
<glyph unicode="&#118;" d="M370 430l0 65c0 2 0 4 2 6-22-2-42-11-57-25 2 0 5-1 7-2z m21-1l48 45c2 2 4 3 6 3-15 13-35 22-56 24 1-2 2-4 2-6l0-66z m82-35l-65 0 50-46c1-1 2-2 2-3 11 14 17 32 18 51-1-2-3-2-5-2z m0 21c2 0 4-1 5-2-2 20-10 37-21 52-1-2-2-4-3-6l-47-44 66 0z m-82-34c0 6 0 13-1 20-1 5-5 9-11 9l-20 0-52 48c-2 2-3 5-3 7-13-15-21-34-22-55l-140 0-90 99c-4 4-11 4-15 0-4-4-5-11-1-15l77-84-68 0c-5 0-10-4-11-9 0-7 0-14 0-21 0-15 1-31 5-46 18-84 81-144 157-152l0-161-64 0c-6 0-11-4-11-10 0-6 5-11 11-11l161 0c5 0 10 5 10 11 0 6-5 10-10 10l-65 0 0 161c66 7 123 54 149 122 26 0 52 10 70 26-1 1-2 1-3 2z m-220-36c-4 0-8-1-12-2-1 0-2 0-4 0-4-1-9-2-14-4l-5-1c-14-4-29-8-43-8l-3 0c-8 0-15 2-22 6-2 1-3 2-4 3-2 1-3 3-5 4 0 0 0 0 0 0-3 13-4 25-4 37 0 3 0 6 0 9l77 0 40-44c0 0-1 0-1 0z m192-14c-3 1-6 2-9 3 0 0 0 0 0 0-6 2-13 2-20 2-1 0-1 0-2 0-4 0-7-1-11-1-10-2-19-5-28-8-15-6-30-10-43-4-4 2-9 4-13 6-11 6-22 11-34 14l-42 46 208 0c0-3 1-6 1-9 0-16-3-33-7-49z"/>
<glyph unicode="&#119;" d="M433 337c-2 2-47 48-101 42-24-3-32-6-39-9-6-2-11-4-37-4-26 0-31 2-37 4-7 3-15 6-39 9-54 5-99-40-102-42-30-37-43-79-36-127 12-93 92-175 120-195 15-10 31-15 49-15 19 0 36 6 45 11 9-5 26-11 45-11 18 0 34 5 49 15 28 20 108 102 120 195 7 48-6 90-37 127z m-177 10c-1 0-1 0-2 0-8 1-14 8-12 16 11 75-41 123-41 124-6 5-7 14-1 20 5 6 15 7 20 1 3-2 64-60 50-149-1-7-7-12-14-12z m2 63c0 0-7 100 160 73 0 0-40-129-160-73z"/>
<glyph unicode="&#120;" d="M382 338c-10-64-48-70-48-70 22 30 12 73-12 88-24 14-80-5-80-5-62-17-106-82-123-156-18-74-66-111-86-130-20-18-42-42-29-59 12-18 78 9 106 29 27 21 10-10 198 79 187 90 74 224 74 224z m114 174c-73-6-114-77-126-104-25 11-46 13-48 13-8 1-15-5-16-13-1-8 5-15 13-16 1 0 58-7 89-51 3-4 8-6 13-6 2 0 5 1 8 3 7 5 8 14 4 21-11 15-24 26-37 35 10 20 44 84 102 88 8 1 15 8 14 16-1 8-8 15-16 14z"/>
<glyph unicode="&#121;" d="M345 453c-4 33-32 59-67 59-30 0-56-21-65-49-8 6-18 9-29 9-30 0-54-24-54-53 0-10 3-19 8-27-19-9-32-28-32-51 0-31 25-56 56-56 15 0 28 5 38 14 11-7 23-10 37-10 20 0 38 8 51 22 12-8 25-12 40-12 43 0 78 35 78 78 0 37-26 68-61 76z m-139-256c24-17 58-26 96-28 2 0 4-1 5-2l15 48c-1 0-2 0-4 0-76 0-119 25-140 43 0 0 0 0-1 0l19-61c3 2 7 2 10 0z m117 40c2 0 3-1 5-1l11 36c-4 0-7-1-11-1-12 0-24 3-36 7-16-11-35-17-55-17-12 0-23 2-34 6 21-15 58-31 120-30z m-94-149l27-88 24 77c-19 2-36 5-51 11z m-26 84l18-58c2 0 5 0 7-1 16-8 35-13 57-14 0 0 1 0 1-1l15 49c-38 2-71 10-98 25z"/>
<glyph unicode="&#122;" d="M443 448l-374 0c-38 0-69-31-69-69l0-210c0-38 31-69 69-69l18 0c-1-2-1-4-1-5l0-15c0-9 7-16 15-16 9 0 16 7 16 16l0 15c0 1-1 3-1 5l280 0c0-2-1-4-1-5l0-15c0-9 7-16 16-16 8 0 15 7 15 16l0 15c0 1 0 3-1 5l18 0c38 0 69 31 69 69l0 210c0 38-31 69-69 69z m-107-274l-268 0 0 199 268 0 0-199z m88 19c-18 0-34 15-34 34 0 18 16 34 34 34 19 0 34-16 34-34 0-19-15-34-34-34z m0 117c-18 0-34 15-34 34 0 19 16 34 34 34 19 0 34-15 34-34 0-19-15-34-34-34z"/>
<glyph unicode="&#65;" d="M361 511c-6 2-12-1-14-6l-3-9 0 0c0 0 0 0 0 0 7-3 12-4 20-8l3 10c2 5-1 11-6 13z m-11-122l-4 83-64-59 28-10-12-35-105 0-48 86c-3 4-8 6-13 5l-42-15c-5-2-8-8-6-14 2-5 8-8 13-6l33 11 38-67-28 0c-2 0-5-1-7-3-2-2-3-5-3-8l1-97 3-217c0-24 19-43 43-43l126 0c24 0 43 19 43 43l3 217 1 97c0 3-1 6-3 8-2 2-5 3-8 3l-19 0 10 28z m-60-42l-27-76-15 0-43 76z m-138-76l-1 76 29 0 43-76z m48-75l42 18 18-43-43-18z m69-138l-43 17 17 43 43-17z m60 289l-1-76-43 0 28 76z m37 140l6-106 42-15c2-1 3-1 4-1 4 0 8 2 9 6 1 1 2 4 2 5-2 56-23 92-63 111z m-140-54l33-11 82 75c-44 10-83-5-119-46-1-2-2-4-3-6-1-5 2-10 7-12z"/>
<glyph unicode="&#66;" d="M81 379l0-151c0-82 65-149 144-149l47 0c80 0 144 67 144 149l0 151z m378-171c-30 0-54 26-54 57l0 47c0 31 24 56 54 56 29 0 53-25 53-56l0-47c0-31-24-57-53-57z m0 138c-18 0-32-15-32-34l0-47c0-19 14-35 32-35 17 0 31 16 31 35l0 47c0 19-14 34-31 34z m-157 52c-6 0-11 4-11 11l0 57c0 6 5 11 11 11 6 0 11-5 11-11l0-57c0-7-5-11-11-11z m-53 0c-6 0-11 4-11 11l0 92c0 6 5 11 11 11 6 0 11-5 11-11l0-92c0-7-5-11-11-11z m-53 0c-6 0-11 4-11 11l0 57c0 6 5 11 11 11 6 0 11-5 11-11l0-57c0-7-5-11-11-11z m219-257c-29-50-82-83-143-83l-47 0c-60 0-113 33-142 83-51-15-83-36-83-60 0-45 111-81 249-81 137 0 249 36 249 81 0 24-32 45-83 60z"/>
<glyph unicode="&#67;" d="M349 512l-186 0c-33 0-60-27-60-60l0-152c0-33 27-60 60-60l79 0 0-76c-7-5-12-13-12-22l0-116c0-14 12-26 26-26 14 0 26 12 26 26l0 116c0 9-5 17-12 21l0 77 79 0c33 0 60 27 60 60l0 152c0 33-27 60-60 60z m-142-190c0-8-7-14-15-14-7 0-14 6-14 14l0 108c0 8 7 14 14 14 8 0 15-6 15-14z m63 0c0-8-6-14-14-14-8 0-14 6-14 14l0 108c0 8 6 14 14 14 8 0 14-6 14-14z m64 0c0-8-7-14-14-14-8 0-15 6-15 14l0 108c0 8 7 14 15 14 7 0 14-6 14-14z"/>
<glyph unicode="&#68;" d="M418 434l-67 0 1 67c0 4-3 8-7 10-3 2-8 1-11-2-54-48-239-75-241-75-1 0-1 0-2 0 0-1-1-1-2-1 0 0-1-1-1-1-1-1-1-1-2-2 0 0-1-1-1-1 0-1-1-1-1-2 0-1 0-1 0-2 0-1 0-1 0-1l0-413c0-6 4-11 10-11l324 0c6 0 11 5 11 11l0 413c0 5-5 10-11 10z m-222-249l-2 29c0 9-1 20-1 28l0 0c-2-8-5-16-8-25l-12-31-6 0-11 30c-3 10-5 18-7 26l0 0c0-8-1-19-1-29l-2-28-8 0 4 65 11 0 11-31c3-8 5-15 7-22l0 0c1 6 4 14 7 22l11 31 11 0 4-65-8 0z m134 295l0-46-126 0c45 11 94 27 126 46z m-77-295l-36 0 0 65 34 0 0-7-26 0 0-21 25 0 0-6-25 0 0-24 28 0 0-7z m59 0l-8 0-21 33c-4 7-9 15-12 22l0 0c0-9 0-16 0-27l0-28-7 0 0 65 9 0 20-33c5-7 9-14 12-21l0 0c-1 9-1 17-1 27l0 27 8 0z m62 27c0-20-10-28-24-28-14 0-24 8-24 28l0 38 9 0 0-38c0-15 6-21 15-21 10 0 16 6 16 21l0 38 8 0z"/>
<glyph unicode="&#69;" d="M222 512l68 0 0-42-68 0z m87-174c-30 22-26 19-26 27l0 89-54 0 0-89c0-8 4-5-26-27-31-22-29-41-29-41l0 0 0-297 164 0 0 297 0 0c0 0 2 19-29 41z"/>
<glyph unicode="&#70;" d="M256 397c-78 0-141-63-141-141 0-78 63-141 141-141 78 0 141 63 141 141 0 78-63 141-141 141z m0 115c-141 0-256-115-256-256 0-141 115-256 256-256 141 0 256 115 256 256 0 141-115 256-256 256z m0-419c-90 0-163 73-163 163 0 90 73 163 163 163 90 0 163-73 163-163 0-90-73-163-163-163z"/>
<glyph unicode="&#71;" d="M0 120l92-75 328 0 92 75z m286 117c33-54 111-19 127 31 15 48 0 103 16 120 15 17 40 10 49 12 11 3 14 20 4 27-10 7-27 8-27 8-3 4-14 39-30 31-17-8-11-24-13-38-2-13 5-19-50-47-56-28-115-81-76-144z m143 26c-12-39-54-70-95-70 0 0 0 0 0 0-26 0-48 12-62 35-15 24-19 49-12 73 8 29 30 52 52 69-58 16-113-32-113-32-124-112-167-101-167-101l1-34c0 0 99-8 95-63l0 0 0 0 318 0c32 67 8 126-10 156-1-11-3-22-7-33z"/>
<glyph unicode="&#72;" d="M221 31l-42 0 0 113-31 0 0-113-42 0c-6 0-11-5-11-11 0-6 5-11 11-11l115 0c7 0 12 5 12 11 0 6-5 11-12 11z m62 219c-11 7-23 9-39 6-7-1-14-3-21-5-11-4-21-7-29-4-3 2-7 3-10 5-9 5-18 9-29 11-13 2-26 1-44-4l-3-1c-11-2-21-5-32-5l-1 0c-6 0-11 1-15 4-1 1-2 1-3 2-1 1-3 2-5 3-3 2-8 2-12-1-3-2-5-7-4-11 15-65 67-111 128-111 56 0 106 40 124 98 2 5 0 11-5 13z m-80-27c-7 0-13 2-18 4-4 2-7 3-11 5-8 4-15 8-23 9-9 2-20 1-34-3l-3-1c-12-3-24-7-37-7l-3 0c-9 1-18 3-26 8-1 1-3 2-4 3-1 1-2 1-3 2-3 1-4 4-5 7-3 12-4 24-4 36 0 5 0 10 1 14 0 6 5 11 11 11l240 0c6 0 10-5 11-11 0-4 1-9 1-14 0-17-3-33-8-49-1-3-3-5-6-7-4-1-7-1-10 1-7 4-14 5-25 3-5-1-10-3-16-5-9-3-18-6-28-6z m-61 41c5 0 9 0 13-1 11-2 20-6 29-11 3-2 7-3 10-5 8-3 18 0 29 4 7 2 14 4 21 5 10 2 18 1 26 0 2 9 3 19 3 29 0 1 0 2 0 3l-219 0c0-1 0-2 0-3 0-8 1-17 3-26 0 0 0 0 0 0 1-1 2-1 3-2 4-3 9-4 15-4l1 0c11 0 21 3 32 5l3 1c12 4 22 5 31 5z m309 69c0 15-3 37-16 54-20 28 0 66 0 66l4 59-82 0 4-59c0 0 20-38 0-66-13-17-16-39-17-54-16-6-28-21-28-40l0-250c0-24 19-43 42-43l79 0c24 0 43 19 43 43l0 250c0 19-12 34-29 40z"/>
<glyph unicode="&#73;" d="M311 418c-6 0-11 5-11 11l0 52c0 6 5 11 11 11 6 0 10-5 10-11l0-52c0-6-4-11-10-11z m-55 0c-6 0-11 5-11 11l0 72c0 6 5 11 11 11 6 0 11-5 11-11l0-72c0-6-5-11-11-11z m-55 0c-6 0-10 5-10 11l0 52c0 6 4 11 10 11 6 0 11-5 11-11l0-52c0-6-5-11-11-11z m304-70c-1 1-25 17-50 9-5-2-9-4-13-8l0 35c0 6-5 10-11 10l-350 0c-6 0-11-4-11-10l0-35c-4 4-8 6-13 8-25 8-49-8-50-9-5-3-6-10-3-15 3-4 10-6 15-2 0 0 17 11 31 6 9-3 16-12 20-26l0-49c0-69 59-126 131-126l110 0c72 0 131 57 131 126l0 49c4 14 11 23 20 26 14 5 31-6 32-6 4-4 11-3 14 2 3 5 2 12-3 15z m-42-348l-414 0c-8 0-14 7-14 15 0 8 6 14 14 14l414 0c8 0 14-6 14-14 0-8-6-15-14-15z m-54 51c0 10-11 17-19 23-13 10-20 20-31 32-3-10-21-16-29-22-12-8-12-20-12-33z m-92 0c-1 9-9 15-15 20-10 8-21 15-29 26-16-12-35-8-54-11-10-1-23-8-30-14-5-4-6-7-8-13 0-2-1-6-2-8z m-139 0c-1 24-25 33-42 46-1-12-9-17-18-24-6-5-11-13-14-22z"/>
<glyph unicode="&#74;" d="M387 437c-10 0-20-2-30-4-9 45-51 79-101 79-50 0-92-34-101-79-10 2-20 4-30 4-69 0-125-52-125-117 0-64 56-117 125-117 16 0 32 4 46 9 19-25 50-42 85-42 35 0 66 17 85 42 14-5 30-9 46-9 69 0 125 53 125 117 0 65-56 117-125 117z m-37-257c-25-24-58-38-94-38-36 0-69 14-94 38-12-3-25-4-37-4-27 0-53 6-75 18l43-194 326 0 43 194c-22-12-48-18-75-18-12 0-25 1-37 4z"/>
<glyph unicode="&#75;" d="M86 367c6 0 11 5 11 11l0 123c0 6-5 11-11 11-6 0-10-5-10-11l0-123c0-6 4-11 10-11z m62 145c-6 0-11-5-11-11l0-123c0-28-23-51-51-51-28 0-51 23-51 51l0 123c0 6-5 11-11 11-5 0-10-5-10-11l0-123c0-34 24-63 56-70l0-292c0-9 7-16 16-16 9 0 16 7 16 16l0 292c32 7 56 36 56 70l0 123c0 6-4 11-10 11z m215-66c-3 37-34 66-72 66-38 0-69-29-72-66 0 0 0-1 0-1l0-67c0-34 24-63 56-70l0-292c0-9 7-16 16-16 9 0 16 7 16 16l0 292c32 7 56 36 56 70l0 67c0 0 0 1 0 1z m-72-119c-28 0-51 23-51 51l0 62c0 28 23 51 51 51 28 0 51-23 51-51l0-62c0-28-23-51-51-51z m207 174l0-485-60 0 14 143c0 0-50 2-35 58 14 55 21 266 81 284z m-148-134c0-23-19-42-43-42l-32 0c-23 0-42 19-42 42l0 86c0 23 19 42 42 42l32 0c24 0 43-19 43-42z"/>
<glyph unicode="&#76;" d="M496 194c9 19 13 45-8 65l-482-95 8-69 475 88c3 3 5 7 7 11z m-10-34l-470-87 8-73 414 59c0 0 16 2 21 3 38 8 68 68 27 98z m-23 117l-209 123-8-7c-14 18-35 29-58 31-1 1-3 1-4 1-9 52-49 83-51 85-5 3-12 3-15-2-4-5-3-12 2-16 0 0 34-26 42-69-37-7-66-39-70-80-2-26 7-52 23-70l-91-83z m-349 64c3 36 32 62 65 62 3 0 5 0 7 0 17-2 33-11 44-24 11-15 17-33 15-52-4-37-36-65-72-61-36 3-63 37-59 75z"/>
<glyph unicode="&#77;" d="M492 159l-30-7-25 107c48 20 78 82 75 159 0 0 0 1 0 1 0 1 0 2 0 3-1 15-3 30-6 44-1 3-3 5-5 7-3 1-6 2-8 1l-228-52c-3-1-5-2-7-5-1-2-2-5-1-8 4-16 9-31 16-47 29-67 80-110 131-110l0 0c1 0 3 0 5 0l24-107-30-7c-6-1-10-7-8-12 1-5 5-9 10-9 1 0 2 1 3 1l89 20c6 2 10 7 8 13-1 6-7 9-13 8z m-100 237c-14 0-25-4-36-12l-2-1c-1-1-2-2-3-3-7-5-15-10-22-11-1-1-3-1-4-1l-1 0c-5 1-11 2-16 4-3 1-5 2-7 3-1 0-2 0-3 0-3 1-5 2-8 2 0 0 0 0 0 0-4 9-7 18-10 27l207 47c1-7 2-14 3-21-1 0-1 0-1 0-2-1-4-1-6-2 0 0 0 0-1 0-2-1-3-1-5-2 0 0-1 0-1 0-2-1-3-2-5-3 0 0-1-1-1-1-2-1-3-2-4-3-4-4-7-8-10-12-3-4-5-8-9-11-3-2-8-3-15-3-7 0-13 0-19 1-7 1-14 2-21 2z m-137-50c0 2-1 5-2 7-2 3-5 4-8 4l-232 23c-3 1-6 0-8-2-2-2-4-4-4-7-1-16-1-33 0-49 7-78 44-135 94-149l-11-108-31 3c-6 0-11-4-12-10 0-6 4-11 10-11l92-9c0-1 0-1 1-1 5 0 10 5 10 10 1 6-4 11-9 12l-32 3 11 109c53 3 102 55 122 130 4 15 7 30 9 45z m-233 12l210-21c-1-7-2-14-4-21 0 0 0 0 0 0-2 1-3 1-5 1-7 0-13-2-18-4-5-2-9-5-13-8-4-3-8-6-12-8-4-1-9 0-16 2-6 2-12 5-17 8-12 6-24 12-39 12-6 0-12-1-18-4l-3 0c-12-4-25-8-34-4-4 2-9 5-14 9-2 1-4 3-7 4 0 1-1 1-2 2-2 1-5 3-7 4-1 0-1 0-1 0-1 10-1 19 0 28z"/>
<glyph unicode="&#78;" d="M505 398c-21 68-89 114-169 114-23 0-45-4-66-12-55-20-78-68-93-112-12-35-22-71-32-106-5-21-11-41-17-62 0 0-14-52-41-55-9 4-18 6-27 6-33 0-60-27-60-60 0-33 26-60 58-61 5-28 30-50 59-50 34 0 61 27 61 61 0 3 0 6-1 9 0 0 0 1 0 1 0 0 3 43 30 59 27 16 70 31 103 36 47 8 93 25 123 45 65 43 93 118 72 187z"/>
<glyph unicode="&#79;" d="M72 294l370 0c0 0 49 2 17 83-38 97-252 203-393 22 0 0-57-83 6-105z m-27-218c0-34 18-62 41-62l340 0c23 0 41 28 41 62l0 7-422 0z m216 107c-21 0-41 7-61 22-17 13-31 19-44 19l-2 0c-7 0-11 0-14-2-2-2-4-4-7-6-2-2-5-5-9-8-40-29-83-22-120 20-6 6-5 15 1 20 6 5 15 5 20-1 37-41 65-28 82-15 2 1 4 3 6 5 3 3 6 6 10 8 11 8 23 8 32 8l1 0c25-1 46-14 61-25 16-11 31-17 46-16 11 1 24 9 36 17 8 5 15 10 23 14 25 12 44 5 55-3 4-3 8-6 12-9 7-6 15-12 23-16 12-5 27-2 40 10 3 3 5 5 8 8 9 9 19 19 37 20 8 0 15-6 15-14 0-8-6-15-14-15-6 0-10-3-18-12-3-2-6-5-9-8-22-20-49-26-71-15-11 5-20 12-29 19-4 3-7 6-11 8-5 4-12 7-25 1-6-3-13-7-20-12-15-10-32-21-50-22-2 0-3 0-4 0z m229-53l-467 0c-8 0-15 7-15 14 0 8 7 15 15 15l467 0c8 0 14-7 14-15 0-7-6-14-14-14z"/>
<glyph unicode="&#80;" d="M506 65c-1 2-56 83-112 166-27-14-44-41-44-41-3-5-8-8-13-8-2 0-5 1-7 3-7 4-9 13-5 19 1 2 20 33 52 51-9 14-19 28-28 41-36-20-61-57-62-58-2-4-7-6-12-6-2 0-5 0-8 2-6 5-8 14-4 20 1 2 29 43 70 66-8 12-16 23-23 33-46-22-79-71-79-71-3-4-7-7-12-7-3 0-6 1-8 3-7 4-9 13-4 20 1 2 35 53 86 79-7 10-12 18-16 23-11 15-26 23-43 23-28 0-56-22-71-36-7 14-28 57-10 86 4 7 2 16-5 20-7 5-16 2-20-5-11-18-13-39-10-58-48 38-96 56-98 57-8 2-16-1-19-9-3-8 1-16 9-19 0 0 48-18 94-55-51 12-84-13-85-15-7-5-8-14-3-20 5-6 14-8 20-3 2 2 41 30 99-7-14-17-31-42-29-67 0-16 8-30 22-40 53-39 333-228 336-230 1 0 10-6 21-6 8 0 14 3 19 8 13 13 8 31 2 41z"/>
<glyph unicode="&#81;" d="M269 431c-114 34-203-5-231-14-6-2-75-36-11-93l0-200c0 0-7-33 38-42 45-8 184-20 184-20 0 0 38-8 38 42 0 49-7 195-7 195 0 0 102 99-11 132z m-169-288c-10 0-19 8-19 18 0 10 9 18 19 18 10 0 19-8 19-18 0-10-9-18-19-18z m6 162c-10 0-19 8-19 18 0 10 9 18 19 18 10 0 19-8 19-18 0-10-9-18-19-18z m87-94c-10 0-19 8-19 18 0 10 9 18 19 18 10 0 19-8 19-18 0-10-9-18-19-18z m258 226c-43 12-99 14-153 13 33-15 46-37 50-54 11-44-23-88-40-107 2-37 7-143 7-185 0-16-3-29-9-40 51 4 117 14 148 19 15 3 38 13 38 43 0 50-7 194-7 194 0 0 80 83-34 117z"/>
<glyph unicode="&#82;" d="M256 139c124 0 225 96 225 215l-450 0c0-119 101-215 225-215z m133-33c-3 5-7 7-12 7l-242 0c-5 0-9-2-12-7l-46-86c-3-7 0-15 6-18 2-1 4-2 6-2 5 0 10 3 12 7l42 80 226 0 42-80c2-4 7-7 12-7 2 0 4 1 6 2 6 3 9 11 6 18z m-67 278c5 0 10 4 10 9l0 66c0 5-5 10-10 10-6 0-10-5-10-10l0-66c0-5 4-9 10-9z m-66 0c5 0 10 4 10 9l0 109c0 6-5 10-10 10-5 0-10-4-10-10l0-109c0-5 5-9 10-9z m-66 0c6 0 10 4 10 9l0 66c0 5-4 10-10 10-5 0-10-5-10-10l0-66c0-5 5-9 10-9z"/>
<glyph unicode="&#83;" d="M336 456c-32 15-64 22-96 22-112 0-191-91-191-92l-4-3c-28-25-48-74-45-112 1-12 4-26 15-33 6-4 20-9 51-9 24 0 50 2 76 5 25 3 48 5 68 5 17 0 30-2 41-6 32-11 48-31 61-48 12-15 26-33 57-52 15-9 35-15 56-15l0 0c42 0 80 21 83 46 7 61 25 204-172 292z m-131-96c0-3 0-5 0-7-1-6-1-14-3-20-1-2-1-4-2-6-2-7-4-17-11-24-7-6-18-12-29-12l0 0c-8 0-13 2-18 4-3 2-6 3-8 3-3 0-6 0-9 0-17 0-45 1-53 29-2 8-2 26 3 35 3 8 24 25 35 25l1 0 1 0c2 0 5 0 7 0 0 1 0 1 1 2 9 15 25 16 34 17 7 1 13-1 18-2 1 0 2 0 3 0 6-1 13-3 19-6 14-10 12-28 11-38z m220-264c-25 0-49 6-68 18-34 21-50 41-62 57-13 17-25 32-51 41-9 3-20 5-34 5-19 0-42-3-65-5-27-3-54-6-79-6-29 0-50 4-63 13 3-26 10-49 25-60 48-36 174 8 215-8 41-16 35-53 97-97 63-43 162-12 169 55 1 5 1 11 2 17-19-18-51-30-86-30z"/>
<glyph unicode="&#84;" d="M263 102l-25-53c6 0 12-1 18-1 10 0 20 1 30 3l21-45c1-4 5-6 9-6 2 0 3 0 5 1 5 2 8 9 5 14l-18 40c-7-2-14-3-22-4z m63 166l0 0c11-5 22-5 33-1 11 4 19 11 24 22l22 49c10 21 0 47-21 56-11 5-22 6-33 2-11-4-19-12-24-22 0 0 0 0 0 0l-22-50c-5-10-5-22-1-32 4-11 12-19 22-24z m-110-216l0 0-13-28c-2-5 0-12 5-14 2-1 3-1 5-1 4 0 8 2 10 6l15 34c-7 1-15 2-22 3 0 0 0 0 0 0z m272 228c0 128-104 232-232 232-128 0-232-104-232-232 0-114 83-209 192-228l35 77-49 107c-6-2-11-2-17-2-7 0-15 1-22 4-16 5-29 17-36 33 0 0 0 0 0 0l-45 98c-2 5 0 12 6 14 5 3 11 0 14-5l45-98 0 0c4-10 13-18 23-22 11-4 23-3 33 1 22 10 31 35 22 57l-45 97c-2 6 0 12 5 15 6 2 12 0 15-6l44-97 0 0c14-29 3-63-22-80l41-90 45 99c-11 7-20 18-25 30-6 16-5 34 2 49l0 0 24 53c1 2 2 3 2 4 8 12 19 21 33 26 16 6 33 5 49-2 31-14 45-49 34-80 0 0 0-1 0-1l-24-53c-8-16-20-28-37-34-7-2-14-4-22-4-6 0-11 1-17 3l-52-116 33-74c103 23 180 115 180 225z m-292 22c2-5 0-12-6-14-1-1-3-1-4-1-5 0-8 2-10 6l-45 98c-2 6 0 12 5 15 6 2 12 0 15-6z"/>
<glyph unicode="&#85;" d="M208 83c-16 0-32 5-48 16-14 10-25 15-36 15-7 0-11 0-14-2-1-1-3-3-5-4-2-2-4-5-7-6-32-23-66-17-95 15-4 4-4 11 0 15 5 4 11 3 15-1 23-24 45-28 68-12 2 1 3 3 5 4 2 2 5 5 8 7 8 6 17 5 24 5 21 0 38-10 50-18 12-9 25-14 37-13 9 0 20 7 30 13 6 4 12 8 18 11 15 7 30 6 43-3 3-2 6-4 9-6 6-5 13-10 19-13 10-4 22-1 33 8 3 2 5 4 7 6 7 7 15 15 29 15 6 0 11-4 11-10 0-6-5-11-11-11-5 0-8-3-15-9-2-2-4-5-7-7-17-15-38-19-56-11-8 4-16 9-23 15-3 2-5 4-8 6-7 4-13 5-22 1-5-3-10-6-16-10-12-8-25-16-40-16-1 0-2 0-3 0z m-173-30c0-26 15-48 33-48l273 0c18 0 33 22 33 48l0 5-339 0z m22 101l297 0c0 0 39 2 14 64-31 75-203 157-316 17 0 0-45-64 5-81z m222 69c6 0 12-5 12-11 0-7-6-12-12-12-7 0-12 5-12 12 0 6 5 11 12 11z m-75 48c8 0 15-6 15-14 0-8-7-14-15-14-8 0-14 6-14 14 0 8 6 14 14 14z m-83-48c7 0 12-5 12-11 0-7-5-12-12-12-6 0-12 5-12 12 0 6 6 11 12 11z m380 150l-137 0c4 80 41 114 41 115 5 4 5 11 1 15-4 5-11 5-15 1-2-2-44-41-48-131l-128 0c-5 0-10-4-10-10 0-6 5-11 10-11l37 0 2-26c65-16 117-59 133-100 12-29 13-53 4-70 2 0 4 0 6 1l1 0c17 0 32-14 32-31 0-9-3-17-9-23-5-6-12-9-19-10-1-1-3-3-4-4-2-2-5-5-8-7-1-1-2-2-3-3l8 0 0-26c0-19-5-35-14-47l51 0 33 346 36 0c6 0 11 5 11 11 0 6-5 10-11 10z m-224-283c0 0 0 0 0-1l1-10 14 0c-3 2-5 4-8 6-2 2-4 3-7 5z m61 36c0 0 0 0 0 0 3 0 6 1 11 5 0 0 1 1 2 2l-24 0c4-3 8-6 11-7z"/>
<glyph unicode="&#86;" d="M511 351l-36 26c0 0-9 4 3 27 12 22 16 49 16 49l2 18-20 9-31 4-23-8 2-30c0 0 22-42 18-69-4-26-19-17-35-33-16-15-77-210-339-172 0 0-49 6-63-11 0 0-19-27 16-62 0 0 146-131 331-39 186 92 159 291 159 291z"/>
<glyph unicode="&#87;" d="M90 56l-6 251c-19 12-41 37-37 76 4 48 41 71 49 75 44 28 89 46 135 54-57 2-125-11-192-54 0 0-35-17-39-57-3-41 30-58 37-60l6-264c0 0 1-45 43-60 1 0 7-2 15-4-7 14-11 31-11 43z m422 327c-1 39-38 53-44 58-6 5-169 120-361-2 0 0-35-17-38-58-4-41 29-58 37-59l6-264c0 0 3-55 41-58 46-2 276 7 276 7 0 0 45-1 45 48 1 49-5 270-5 270 0 0 44 19 43 58z m-297-290c-20 0-36 19-36 41 0 23 16 41 36 41 20 0 37-18 37-41 0-22-17-41-37-41z m46 222c-12 0-22 12-22 25 0 14 10 26 22 26 12 0 22-12 22-26 0-13-10-25-22-25z m113-165c-20 0-37 18-37 41 0 23 17 42 37 42 20 0 37-19 37-42 0-23-17-41-37-41z"/>
<glyph unicode="&#88;" d="M256 298c-41 0-117 2-174 18l26-250c0-36 40-66 88-66l120 0c48 0 88 30 88 66l26 250c-57-16-133-18-174-18z m224 82l-38 80c0 1-2 3-3 4-13 33-101 48-183 48-82 0-170-15-183-48-1-1-3-3-3-4l-38-80c-2-4-1-8 2-12 15-38 144-49 222-49 78 0 207 11 222 49 3 4 4 8 2 12z m-224-39c-126 0-198 23-202 35l28 58c27-24 103-36 174-36 71 0 147 12 174 36l28-58c-4-12-76-35-202-35z"/>
<glyph unicode="&#89;" d="M193 198c-25 5-50-12-55-37-5-26 12-50 37-55 26-5 50 11 55 37 5 25-11 50-37 55z m133 31c0-26-21-48-47-48-26 0-47 22-47 48 0 26 21 47 47 47 26 0 47-21 47-47z m96 76c0-26-21-47-47-47-26 0-47 21-47 47 0 26 21 47 47 47 26 0 47-21 47-47z m-69-207c0-26-21-47-47-47-26 0-47 21-47 47 0 26 21 47 47 47 26 0 47-21 47-47z m94 68c5 26-11 50-37 55-25 5-50-12-55-37-5-26 12-50 37-55 26-5 50 12 55 37z m-12-73c-26 5-50-11-55-37-5-26 11-50 37-55 25-5 50 12 55 37 5 26-12 50-37 55z m-194 236c2-2 86 33 72 86-12 49-8 97-8 97-178-96-64-183-64-183z m-27-50c3-4 8-6 12-6 4 0 7 1 10 3 7 5 8 15 2 22-86 109-190 58-191 57-7-4-10-13-6-21 4-7 13-10 20-6 1 0 82 40 153-49z"/>
<glyph unicode="&#90;" d="M313 310c0 5-4 8-9 8-5 0-9-3-9-8 0-5 4-9 9-9 5 0 9 4 9 9z m-42-25c0 4-4 8-8 8-5 0-8-4-8-8 0-5 3-8 8-8 4 0 8 3 8 8z m32-11c0 5-4 8-8 8-5 0-9-3-9-8 0-4 4-8 9-8 4 0 8 4 8 8z m-44 45c0-4 4-8 9-8 5 0 8 4 8 8 0 5-3 9-8 9-5 0-9-4-9-9z m231-64l-468 0c-5 0-10-5-10-10 0-6 5-10 10-10l45 0c6-89 88-159 189-159 101 0 183 70 189 159l45 0c5 0 10 4 10 10 0 5-5 10-10 10z m-154-206c-2 2-6 4-9 4l-142 0c-3 0-7-2-9-4l-26-25c-5-6-5-14 0-20 3-3 7-4 10-4 4 0 7 1 10 4l21 21 130 0 21-21c3-3 6-4 10-4 3 0 7 1 10 4 5 6 5 14 0 20z m-278 347l152-69c9-4 21-1 27 8l23 33c5 9 4 22-4 29l-124 111c-8 7-19 5-24-3l-57-85c-5-9-2-19 7-24z"/>
<glyph unicode="&#48;" d="M393 369l-20-2c-1 0-8-1-15-5 14-11 33-28 51-56l29-44-51 11c-1 0-31 6-57 6-5 0-10 0-13 0-2-21-10-56-45-89l-10-10-13 5c-2 1-45 18-61 55-13-4-29-8-46-8-9 0-19 1-27 4l-18 5 2 18c1 2 5 39 30 72-8 7-15 16-22 29-47-38-78-93-78-155 0-113 102-205 227-205 125 0 227 92 227 205 0 67-36 126-90 164z m-232-35c-35-31-40-78-40-78 37-10 82 13 82 13 1-43 54-64 54-64 46 45 38 89 38 89 23 16 96 0 96 0-35 53-68 63-68 63 16 29 48 32 48 32-56 34-98 25-119 16 5 51 32 80 34 82 6 6 6 15 0 21-6 6-16 5-21 0-2-2-38-41-43-105-46 14-101-20-101-20 11-37 40-49 40-49z"/>
<glyph unicode="&#49;" d="M333 378c-98 0-178-80-178-179 0-98 80-178 178-178 99 0 179 80 179 178 0 99-80 179-179 179z m-52-238c-14 0-25 11-25 25 0 13 11 24 25 24 13 0 24-11 24-24 0-14-11-25-24-25z m16 124c-14 0-25 11-25 24 0 14 11 25 25 25 13 0 24-11 24-25 0-13-11-24-24-24z m99-114c-14 0-25 11-25 25 0 13 11 24 25 24 14 0 25-11 25-24 0-14-11-25-25-25z m-63 250c1 0 1 0 1 0-30 55-88 91-155 91-99 0-179-80-179-178 0-86 61-158 142-175-6 19-9 40-9 61 0 111 90 201 200 201z m-235-112c-14 0-25 11-25 25 0 14 11 25 25 25 13 0 25-11 25-25 0-14-12-25-25-25z m25 104c0 13 11 24 24 24 14 0 25-11 25-24 0-14-11-25-25-25-13 0-24 11-24 25z"/>
<glyph unicode="&#50;" d="M256 61c-141 0-256 115-256 256 0 8 6 14 14 14 8 0 15-6 15-14 0-125 102-227 227-227 125 0 227 102 227 227 0 8 7 14 15 14 8 0 14-6 14-14 0-141-115-256-256-256z m10 256c-3-23-23-41-47-41-16 0-30 7-39 19-7-5-16-8-25-8-19 0-36 12-41 30l-60 0c0-111 91-202 202-202 111 0 202 91 202 202z m-122-71l-20-13c-2-1-4-1-6-1-3 0-6 2-8 5-4 5-2 11 3 14l20 13c5 3 11 1 14-3 3-5 2-12-3-15z m77-28l-9-22c-1-4-5-6-9-6-2 0-3 0-4 0-6 3-8 9-6 14l8 22c3 6 9 8 14 6 5-2 8-8 6-14z m80-39c-1 0-2-1-4-1-4 0-8 3-9 7l-9 23c-2 6 1 12 7 14 5 2 11-1 13-7l8-23c2-5-1-11-6-13z m79 64c-2-3-5-5-8-5-3 0-5 1-6 2l-20 14c-5 3-6 9-3 14 3 5 10 6 14 3l20-14c5-3 6-10 3-14z m-83 148c-2 0-4 0-5 2-5 3-6 9-3 14l17 25c3 5 9 6 14 3 5-4 6-10 3-15l-17-25c-2-3-5-4-9-4z m-72 10c-1 0-1 0-2 0-5 1-9 6-8 12l5 29c1 6 6 10 12 9 6-1 10-7 9-12l-6-30c-1-5-5-8-10-8z m-88-12c-4 0-8 3-10 7l-11 27c-3 5 0 12 5 14 6 2 12 0 14-6l11-27c3-6 0-12-5-14-2-1-3-1-4-1z"/>
<glyph unicode="&#51;" d="M33 112c0-61 40-112 89-112l268 0c49 0 89 51 89 112l0 8-446 0z m478 124c-4 16-17 25-31 28-15 4-27-1-40-11-10-8-22-22-35-22-13 0-13 18-23 27-6 6-10 7-18 1-7-5-2-8-12-7-7 1-7 9-17 1-5-4-7-12-12-16-16-10-13 26-23 33-25 18-60 18-71-20-1-6-1-20-6-23-9-6-16 9-22 13-12 7-23-3-33 8-8 7-11 20-17 28-7 8-17 9-26 11-21 4-36 2-52-14-7-7-12-11-21-9-7 2-15 10-23 6-15-8-20-40-29-53-3-17 16-32 28-35 13-3 27 2 40 4 26 4 54-17 79-7 6 3 10 8 17 9 7 0 17 1 23 0 14-3 31-14 46-8 6 2 11 10 17 12 10 2 18-5 27-9 9-4 22-7 32-7 9 1 12 7 19 10 16 5 29-5 42-11 15-5 28 2 41 5 29 8 63-19 88 7 10 11 16 32 12 49z m-201 269c0 0 0 0 0 0 0 0 0 0 0 0-18 5-36 7-54 7-102 0-189-74-222-177l444 0c-27 84-90 149-168 170z"/>
<glyph unicode="&#52;" d="M431 204c-4 9-8 19-11 30-2 6-4 12-6 17-8 23-27 40-49 43-5 1-10 1-15 0 1 11 2 22 2 34 0 76-26 140-63 168 0 1 0 1-1 1-13 10-27 15-42 15-54 0-97-68-104-159 0 0 0 0 0 0 0 0 0 0 0 0 0-4 0-8 0-12-6 2-12 2-17 0-6-2-13-6-18-17-7-17-13-34-18-51l-1-3c0-2-1-4-2-6-2-6-4-13-5-20 0-4 0-9 0-14 0-6 0-11-1-16-1-4 1-9 5-11 4-3 9-2 12 1 7 5 11 13 14 20 1 3 3 6 4 8 3 5 6 8 8 10 0 0 0 0 0 0 2-12 3-24 5-36 3-27 7-54 12-81 4-23 11-50 31-70 13-14 33-24 54-28-1-3-2-6-3-8-3-5-2-12 3-15 1 0 1 0 2-1 0 0 1 0 1 0 6-3 13-3 20-3 2 0 4 0 5 0 4 0 8 0 13 0 5 0 10 0 15 0 6 1 10 5 10 11 0 3 0 6-1 10 0 2-1 5-1 7 3 0 7 1 9 1 7 0 12 0 16 2 10 3 20 11 27 20 13 18 18 45 22 66 0 4 1 8 2 11 2 10 3 19 5 28 2 15 4 29 8 43 1 2 1 4 2 6 0 1 0 3 1 5 7-3 17-8 21-11 1 0 2-2 4-3 3-3 8-6 13-7 4-1 8 0 11 4 2 3 3 7 1 11z m-185 17c-3 10-6 20-10 31-2 6-5 12-8 19l43 0 0-50z m-23 71l0 50 48 0 0-50-48 0z m-47 121l26 0 0-50-37 0c2 18 6 35 11 50z m47 0l48 0 0-50-48 0z m105-50l-36 0 0 50 25 0c5-15 9-32 11-50z m-36-21l38 0c0-5 0-10 0-14 0-12-1-24-2-36l-36 0 0 50z m17 93l-17 0 0 28c6-8 12-17 17-28z m-38 48l0-48-48 0 0 49c8 4 15 7 23 7 9 0 17-3 25-8z m-69-18l0-30-18 0c5 11 11 22 18 30z m-33-136c-2 1-4 2-6 3 0 4 0 7 0 10l39 0 0-34c-7 6-16 11-23 15-4 2-7 4-10 6z m96-162c-1-3-2-7-3-10 0 2-1 3-1 5-3 12-5 25-9 37l19 0 0-13c-2-6-4-13-6-19z m27 74l0 30 19 0c-8-10-14-20-19-30z"/>
<glyph unicode="&#53;" d="M347 72c-3 6-8 9-14 9l-154 0c-6 0-11-3-14-9l-17-39c-3-7 0-16 8-19 2-1 4-1 6-1 5 0 11 3 13 9l13 30 136 0 13-30c2-6 8-9 13-9 2 0 4 0 6 1 8 3 11 12 8 19z m-91 275c-6 0-11-4-11-10l0-57c0-6 5-10 11-10 6 0 11 4 11 10l0 57c0 6-5 10-11 10z m-42 0c-5 0-10-4-10-10l0-57c0-6 5-10 10-10 6 0 11 4 11 10l0 57c0 6-5 10-11 10z m-41-5c-6 0-11-5-11-10l0-47c0-5 5-10 11-10 6 0 11 5 11 10l0 47c0 5-5 10-11 10z m-42-6c-6 0-10-5-10-11l0-34c0-5 4-10 10-10 6 0 11 5 11 10l0 34c0 6-5 11-11 11z m167 11c-6 0-11-4-11-10l0-57c0-6 5-10 11-10 6 0 10 4 10 10l0 57c0 6-4 10-10 10z m41-5c-6 0-10-5-10-10l0-47c0-5 4-10 10-10 6 0 11 5 11 10l0 47c0 5-5 10-11 10z m42-6c-6 0-11-5-11-11l0-34c0-5 5-10 11-10 6 0 11 5 11 10l0 34c0 6-5 11-11 11z m-84 68c6 0 11 5 11 11l0 47c0 6-5 10-11 10-5 0-10-4-10-10l0-47c0-6 5-11 10-11z m-41 0c6 0 11 5 11 11l0 74c0 5-5 10-11 10-6 0-11-5-11-10l0-74c0-6 5-11 11-11z m-41 0c5 0 10 5 10 11l0 47c0 6-5 10-10 10-6 0-11-4-11-10l0-47c0-6 5-11 11-11z m295-127c-3 15-11 25-22 28-3 1-5 1-8 1-7 0-14-3-21-8 1 4 1 7 1 10 0 50-105 77-204 77-99 0-204-27-204-77 0-3 0-7 1-10-6 5-14 8-21 8-3 0-5 0-8-1-11-3-19-13-22-28-3-12-2-27 2-42 9-29 28-50 47-50 3 0 6 1 8 1 9 3 15 9 19 18 36-61 103-102 178-102 75 0 142 41 178 102 4-9 10-15 19-18 2 0 5-1 8-1 19 0 38 21 47 50 4 15 5 30 2 42z m-457-70c-7-2-21 10-29 34-3 11-4 23-2 32 2 6 5 11 8 12 1 0 1 0 2 0 7 0 20-11 26-32 1-1 1-2 1-3 7-23 1-41-6-43z m203 47c-113 0-183 32-183 54 0 23 70 55 183 55 113 0 183-32 183-55 0-22-70-54-183-54z m232-13c-8-24-22-36-29-34-7 2-12 19-6 42 0 1 1 3 1 5 7 20 19 31 26 31 1 0 1 0 2 0 3-1 6-6 8-12 2-9 1-21-2-32z"/>
<glyph unicode="&#54;" d="M188 371c0-38-31-69-69-69-39 0-70 31-70 69 0 39 31 70 70 70 38 0 69-31 69-70z m204 59c-48 0-86-38-86-86l172 0c0 48-38 86-86 86z m105-114l-210 0c-8 0-15-6-15-14 0-9 7-15 15-15l210 0c8 0 15 6 15 15 0 8-7 14-15 14z m-129 134c6 0 11 5 11 11 0 7 6 13 13 13 7 0 13-6 13-13 0-6 5-11 11-11 6 0 11 5 11 11 0 19-16 34-35 34-19 0-35-15-35-34 0-6 5-11 11-11z m44-183c-11 8-28 6-36-6l-66-90-112 86c-3 2-34 12-47 12l-65 0c-47 0-86-38-86-86l0-134c0 0 0-32 0-32l237 0c0 0 0 0 0 0l0 145 62-48c5-3 10-5 16-5 1 0 3 0 4 0 7 1 13 5 17 11l82 111c8 11 6 28-6 36z"/>
<glyph unicode="&#55;" d="M505 239c-27 68-94 126-159 132 0 0 0 0 0 0-1 1-2 2-4 3-16 10-60 13-69 13-2 0-5-1-7-3-2-1-6-3-8-3-18 15-35 21-52 16-31-8-45-47-45-49-1-3-1-5 0-8-70-5-139-47-160-163-1-8-3-17 5-26 6-7 12-8 26-9 90-6 324-13 369-26 56-16 135 46 104 123z m-148 106c0-2 0-3-1-4 1 1 1 2 1 4z m0 4c0-1 0-2 0-3 0 1 0 2 0 3z m-7 18c-1 1-1 1-1 2 0-1 0-1 1-2z m6-16c0 1 0 1 0 2 0-1 0-1 0-2z m0 4c0 1-1 2-1 2 0 0 1-1 1-2z m-2 5c0 0 0 1 0 1 0 0 0-1 0-1z m-2 4c0 0 0 1 0 1 0 0 0-1 0-1z m-188-28c0 0 0 0 0 0 0 0 0 0 0 0z m-17-55c10 0 18-8 18-18 0-9-8-17-18-17-9 0-17 8-17 17 0 10 8 18 17 18z m-56-71c-5 0-10 5-10 11 0 5 5 10 10 10 6 0 11-5 11-10 0-6-5-11-11-11z m56-40c-14 0-25 11-25 25 0 14 11 25 25 25 14 0 25-11 25-25 0-14-11-25-25-25z m218 25c-35 57-86 140-172 145-3 1-7 1-11 1 3 8 14 31 30 35 9 2 20-2 33-13 9-8 22-5 31 1 19 0 47-4 55-9 6-4 2-17 2-17-2-6 1-12 6-14 1-1 23-9 36-16 1-1 2-2 3-2-1 0-1-1-1-1l-6-17c-1-4 0-8 2-10 2-3 6-5 10-5 0 0 22 2 38-2 1 0 1-1 2-1-1 0-1-1-1-2l-27-22c-3-2-5-6-4-10 0-3 2-7 5-8 9-5 32-19 41-32 10-14-15-32-16-33-3-2-5-5-5-9-11 3-32 11-51 41z m51-44c1-1 1-3 2-4-1 1-1 3-2 4z m-85 204c-2 1-3 2-5 2l8-16c1 4 1 11-3 14z"/>
<glyph unicode="&#56;" d="M497 0c-4 0-8 1-11 4l-79 82c-6 5-6 15 0 21 6 5 15 5 21-1l79-81c6-6 6-15 0-21-3-3-6-4-10-4z m-157 130c0 0-4 31-50 22-47-8-57-33-102-19 0 0 77-62 121-44 0 0 35 6 31 41z m-95 95c0 0-1 31-48 27-48-5-60-29-103-11 0 0 71-69 117-54 0 0 35 3 34 38z m-94 96c0 0-1 31-48 27-47-3-60-27-103-9 0 0 70-70 116-56 0 0 36 3 35 38z m222-157c0 0-29 4-21 52 8 48 33 58 19 103 0 0 61-78 43-123 0 0-6-36-41-32z m-93 97c0 0-30 2-25 50 4 48 28 61 10 105 0 0 67-73 53-119 0 0-3-37-38-36z m-93 96c0 0-30 1-27 49 3 49 27 62 9 105 0 0 68-71 55-118 0 0-3-36-37-36z m181-285c-1 0-2 0-3 1-8 1-13 9-11 17 0 2 10 49 67 70 8 3 16-1 19-9 3-7-1-16-9-19-40-15-48-47-48-48-2-7-8-12-15-12z m-231 385c-7 5-64 54-107 54-1 1-2 1-3 1-5 0-9-1-12-4-4-3-6-8-5-13 0-1 0-2 0-3 1-44 48-102 54-109 3-4 7-6 11-6 4 0 7 2 10 4 6 5 7 14 2 21-16 19-39 53-45 78 24-7 57-30 76-46 2-2 6-3 9-3 4 0 9 1 11 5 6 6 5 15-1 21z"/>
<glyph unicode="&#57;" d="M308 351c6 0 10 5 10 11l0 57c0 6-4 11-10 11-6 0-11-5-11-11l0-57c0-6 5-11 11-11z m-52 0c6 0 11 5 11 11l0 86c0 5-5 10-11 10-6 0-11-5-11-10l0-86c0-6 5-11 11-11z m-52 0c6 0 11 5 11 11l0 57c0 6-5 11-11 11-6 0-10-5-10-11l0-57c0-6 4-11 10-11z m240-268l-376 0c-8 0-14-6-14-15 0-8 6-14 14-14l376 0c8 0 14 6 14 14 0 9-6 15-14 15z m57 216l-35 0c1 7 1 14 1 22l-422 0c0-8 0-15 1-22l-35 0c-6 0-11-5-11-11 0-6 5-10 11-10l39 0c21-88 105-154 206-154 101 0 185 66 206 154l39 0c6 0 11 4 11 10 0 6-5 11-11 11z"/>
<glyph unicode="&#33;" d="M501 425l-189 0-55 75c-3 4-10 5-15 2-4-3-5-10-2-15l46-62-72 0c-6 0-10-5-10-10 0-6 4-11 10-11l36 0 11-130 16 0c57 0 106-40 117-95l0 0c-7 3-15 5-24 6-12 39-49 68-93 68l-130 0c-44 0-81-29-93-68-30-1-54-25-54-55 0-31 24-55 54-55 13-39 50-67 93-67l130 0c43 0 80 28 93 67 8 0 16 2 23 5-6-30-24-55-48-72l86 0 35 396 35 0c6 0 11 5 11 11 0 5-5 10-11 10z m-132-329l-314 0c-19 0-34 15-34 34 0 18 15 34 34 34l314 0c19 0 34-16 34-34 0-19-15-34-34-34z"/>
<glyph unicode="&#34;" d="M502 502c0 0-117 41-225-42-17 14-42 29-70 16-48-21-112-147-112-147l76-9c-16-37-31-79-43-130l-128-57c0 0 51-36 103-30-6-52 30-103 30-103l57 128c51 12 93 27 130 43l9-76c0 0 126 64 147 112 13 28-2 53-16 70 83 108 42 225 42 225z m-61-102c-11-12-30-12-41 0-12 11-12 30 0 41 11 12 30 12 41 0 12-11 12-30 0-41z"/>
<glyph unicode="&#35;" d="M512 272c0 55-44 99-97 99-7 0-14-1-21-3-6 17-17 31-32 39 0 4 0 8 0 11 0 52-41 94-92 94-33 0-64-18-80-47-16 9-33 13-50 13-62 0-112-51-112-113 0-38 18-72 48-93 1-17 5-33 13-48 0 0 0 0 0 0 0-1-23-105-86-178-5-6-4-15 2-20-1-4 0-8 3-11 2-2 5-3 8-4 1-3 2-6 5-8 3-2 6-3 9-3 4 0 8 2 11 6 1 0 72 89 201 72 3 0 6 1 9 2 6-1 12-2 19-2 12 0 23 2 34 7 19-36 55-59 96-59 60 0 109 49 109 110 0 25-9 49-24 68 17 19 27 43 27 68z m-329 126c27 1 82-13 94-73 2-8-3-16-11-17-1-1-2-1-3-1-7 0-13 5-14 12-11 51-63 50-66 50 0 0 0 0 0 0-8 0-14 6-14 14-1 8 6 15 14 15z m-72-204c12-12 27-21 44-27-30-26-61-54-87-77 23 41 36 80 43 104z m2-103c21 19 44 39 67 59 4-15 11-29 21-41-34-1-63-8-88-18z m190 74c0 0 0 0 0 0-8 0-15 7-14 15 2 59-77 74-80 75-8 1-13 9-12 17 1 7 9 13 17 11 37-7 107-37 104-104-1-8-7-14-15-14z m126-42c-2-6-8-9-13-9-2 0-4 1-6 1-7 4-11 12-7 20 10 22 11 42 4 59-13 32-49 46-49 46-8 3-11 11-8 19 3 7 11 11 18 8 2-1 48-19 66-61 10-25 9-53-5-83z"/>
<glyph unicode="&#36;" d="M435 437l-155 22c-15 2-22-8-15-22l77-160c7-14 18-14 26-1l80 133c8 13 2 26-13 28z m-95-39c-4 0-8 3-8 8 0 5 4 9 8 9 5 0 9-4 9-9 0-5-4-8-9-8z m17-60c-5 0-9 4-9 9 0 5 4 9 9 9 5 0 9-4 9-9 0-5-4-9-9-9z m23 42c-5 0-9 4-9 9 0 5 4 9 9 9 5 0 9-4 9-9 0-5-4-9-9-9z m55-36l-48-79c-7-13-19-21-32-21-14 0-26 9-33 24l-47 96c-4 1-7 1-11 1l7-78c1-12-2-23-9-31-6-7-15-10-25-10-7 0-14 1-21 5l-157 84c-1 0-2 1-3 2-35-13-56-29-56-46 0-41 115-75 256-75 141 0 256 34 256 75 0 20-30 39-77 53z m-186-59l-15 155c-1 15-13 22-27 15l-137-74c-14-8-14-19 0-27l157-83c13-7 23-1 22 14z m-104 77c-4 0-8 4-8 9 0 5 4 9 8 9 5 0 9-4 9-9 0-5-4-9-9-9z m40 27c0 5 4 9 9 9 5 0 9-4 9-9 0-5-4-9-9-9-5 0-9 4-9 9z m13-60c-5 0-9 4-9 9 0 5 4 9 9 9 5 0 9-4 9-9 0-5-4-9-9-9z m56-133c-99 0-205 16-252 52 22-111 126-195 252-195 126 0 230 84 252 195-47-36-152-52-252-52z"/>
<glyph unicode="&#37;" d="M461 416l-410 0c-6 0-11 5-11 11 0 6 5 11 11 11l410 0c6 0 11-5 11-11 0-6-5-11-11-11z m-67 44l-17 52-242 0-17-52z m-284-66l43-394 206 0 43 394z m146-262l-99 99 99 99 99-99z"/>
<glyph unicode="&#38;" d="M290 345c-41 0-92 15-144 45-63 36-117 24-145 12 0-2-1-4-1-6 0-64 75-116 168-116 67 0 125 28 152 68-9-2-19-3-30-3z m-129 72c80-46 140-49 173-32 1 4 1 8 1 11 0 64-75 116-167 116-71 0-132-31-156-74 36 10 90 13 149-21z m188-260c90 23 136 66 146 103-1 2-3 3-4 5-41 47-130 32-198-33-53-52-78-118-67-168 19 33 56 75 123 93z m8-30c-72-18-103-70-114-98 0 0 1-1 1-2 41-47 130-32 198 34 51 48 76 111 69 159-26-40-81-74-154-93z"/>
<glyph unicode="&#39;" d="M432 460l-133-167 212-15c1 5 1 10 1 15 0 68-31 128-80 167z m-26-116c-7 0-13 6-13 13 0 6 6 12 13 12 7 0 12-6 12-12 0-7-5-13-12-13z m60-30c-7 0-12 5-12 12 0 7 5 13 12 13 7 0 13-6 13-13 0-7-6-12-13-12z m-253-58l132 166c-36 29-82 47-132 47-118 0-213-96-213-213 0-117 95-213 213-213 112 0 204 87 212 198z m-106-68c-7 0-13 6-13 13 0 7 6 12 13 12 6 0 12-5 12-12 0-7-6-13-12-13z m24 113c-6 0-12 6-12 13 0 7 6 12 12 12 7 0 13-5 13-12 0-7-6-13-13-13z m64 103c0 12 10 21 21 21 12 0 21-9 21-21 0-12-9-21-21-21-11 0-21 9-21 21z m40-304c-17 0-31 14-31 32 0 17 14 31 31 31 18 0 32-14 32-31 0-18-14-32-32-32z"/>
<glyph unicode="&#40;" d="M233 385c36-136 204-46 204-46-99 136-212 67-212 67z m159-177c-36 6-70-8-92-33-73 71-104 200-109 223 15 32 34 65 62 96 4 4 3 11-1 15-5 4-12 4-16-1-100-113-105-249-101-310 0 0 0 0 0 0-46-1-87-34-95-82-10-53 26-105 80-114 54-10 105 26 115 80 9 53-25 103-78 114 1-16 3-25 3-26 1-6-3-11-9-12 0-1-1-1-2-1-5 0-9 4-10 9-1 2-3 14-4 32 8 0 15-1 22-2-2 34-2 97 21 166 14-52 47-147 109-206 0 0 0 0 0 0-4-8-8-18-10-28-9-54 27-105 81-115 53-10 105 26 114 80 10 54-26 105-80 115z m-57-74c-2-3-6-5-9-5-2 0-4 0-6 2-12 7-22 16-33 25 4 7 8 13 13 19 0 0 0 0 0 0 9-10 20-19 32-26 5-3 6-10 3-15z"/>
<glyph unicode="&#41;" d="M348 512l-184 0c-23 0-42-19-42-42l0-133 268 0 0 133c0 23-19 42-42 42z m10-126c0-6-5-11-11-11-6 0-11 5-11 11l0 59c0 6 5 11 11 11 6 0 11-5 11-11z m-236-70l0-240c0-23 19-42 42-42l3 0 0-23c0-6 5-11 11-11 6 0 11 5 11 11l0 23 134 0 0-23c0-6 5-11 11-11 6 0 11 5 11 11l0 23 3 0c23 0 42 19 42 42l0 240z m236-106c0-6-5-11-11-11-6 0-11 5-11 11l0 59c0 6 5 11 11 11 6 0 11-5 11-11z"/>
<glyph unicode="&#42;" d="M501 214l-490 0c-6 0-11-5-11-11 0-6 5-11 11-11l34 0c23-67 110-115 211-115 101 0 188 48 211 115l34 0c6 0 11 5 11 11 0 6-5 11-11 11z m-152 43c6 0 11 5 11 10l0 105c0 6-5 11-11 11-6 0-10-5-10-11l0-105c0-5 4-10 10-10z m-93 0c6 0 11 5 11 10l0 158c0 6-5 10-11 10-6 0-11-4-11-10l0-158c0-5 5-10 11-10z m-93 0c6 0 10 5 10 10l0 105c0 6-4 11-10 11-6 0-11-5-11-11l0-105c0-5 5-10 11-10z"/>
<glyph unicode="&#43;" d="M384 244c0 22-6 44-16 62 0 1-7 14-10 33-7 35 0 61 22 78 3 3 5 7 3 12-1 4-5 7-10 7l-135 0c-9 20-17 37-22 48-8 14-17 23-28 27-13 3-23-2-23-2l-31-16c-5-3-7-9-5-14 3-5 10-8 15-5l31 16c0 0 3 1 7 0 5-1 10-7 15-16 4-8 10-22 18-38l-76 0c-5 0-9-3-10-7-2-5 0-10 3-12 22-17 29-43 22-78 0 0 0 0 0 0-3-19-10-32-10-33-1-4-16-39-16-62 0-65 50-119 113-126l0-97-26 0c-6 0-11-4-11-10 0-6 5-11 11-11l82 0c6 0 11 5 11 11 0 6-5 10-11 10l-26 0 0 97c63 7 113 61 113 126z m-84-50c-1-2-3-3-4-4l-17-8c-4-2-9 0-11 4l-8 17c-1 2-1 4 0 6 0 2 2 3 4 4l17 8c1 1 2 1 3 1 3 0 6-2 7-5l8-17c1-1 1-4 1-6z m48 221c-12-18-17-41-13-68l-55 0c-5 11-18 39-32 68z m-123 0c12-26 24-52 31-68l-79 0c4 27-1 50-13 68z m5-154l-16 10c-4 2-5 7-2 11l10 16c1 2 4 3 7 3 1 0 3 0 4-1l16-10c1-1 3-3 3-5 1-2 0-5-1-6l-10-16c-3-4-8-5-11-2z"/>
<glyph unicode="&#44;" d="M167 348c2-2 4-3 7-3 3 0 6 2 8 4 4 5 3 12-1 16-65 56-74 123-75 124 0 6-6 10-12 10-6-1-10-7-9-13 0-3 10-76 82-138z m330-207c-8 38-16 73-28 110-5 14-7 28-10 42-4 18 0 38-4 56-6 30-18 64-39 87-10 12-27 19-41 24-12 4-44 10-71 6 6 10 10 22 11 34 1 5-2 9-6 11-5 2-10 1-13-3-2-2-11-4-15-5-2 0-4-1-6-1-6-1-12-2-18-3-9-1-17-2-26-5-14-4-29-11-44-22-17-13-30-31-38-58-2-6 2-12 7-14 6-2 12 2 14 7 7 23 16 37 30 47 13 9 25 16 37 19 7 3 15 4 23 5 6 0 13 1 20 3 2 0 3 1 5 1 1 0 2 0 3 0-4-8-10-16-18-25-8-9-17-18-27-25l-3-3c-5-4-10-8-15-11-1 0-2 0-4-1-4-1-11-3-15-9-3-4-2-10 1-14 3-3 9-4 13-2 5 2 17 2 25 2 3-1 7-1 9-1 16 0 29-2 40-6 13-5 26-12 32-19 5-5 8-9 10-12-5 0-11-1-17-3-13-4-24-11-34-18-8-5-16-10-23-13-13-6-26-11-40-7-5 2-12 4-18 8-1 0-2 1-3 2-1 2-2 3-4 5-3 2-8 3-12 2-3-2-6-5-6-10-1-5-1-11-1-16 0-14-1-26-6-39-4-6-8-12-12-19-5-6-9-12-13-19-2-5-4-9-5-13-6 9-12 19-17 29-10 23-8 50 4 71 2 4 2 10-2 13-3 4-9 5-13 2-5-3-10-7-14-11-2-2-4-4-6-5-4-4-10-6-16-9-2-1-4-2-6-3l-1 0c-9-4-20-9-30-13 1 1 1 2 1 2 2 3 3 7 4 10 7 15 13 27 23 38 5 5 12 10 19 15 3 2 6 3 8 5 9 7 15 10 24 10 7 0 11 5 11 11 0 6-5 11-11 11 0 0 0 0 0 0-14 0-25-6-36-14-3-2-5-3-8-5-8-5-17-11-23-19-12-13-19-26-26-43-2-3-4-7-5-11-1-2-2-4-3-6 0-1-1-3-2-5-3-4-5-9-6-14 0-3 1-7 3-9 3-3 6-4 10-3 9 1 19 5 28 8-11-70 5-155 72-188 24-12 46-18 72-23 23-4 49-4 70-13 39-16 81-46 123-47 18 0 42 0 57 9 14 8 27 16 35 28 22 31 23 67 16 104z m-279-2c-2-3-5-4-8-4-3 0-5 1-7 2-20 16-23 19-16 27 4 5 10 6 15 2 0 0 0 0 0 0l15-12c4-4 5-10 1-15z m65-43c-2-3-5-4-8-4-3 0-5 0-7 2-19 16-23 19-16 27 4 5 11 6 15 2 0 0 0 0 0 0l15-12c4-4 5-11 1-15z m4 122c-2-2-4-2-7-2-3 0-6 1-8 4l-11 15c0 0 0 0 0 0-4 5-3 12 2 15 6 5 9 4 15-2l0 0c1-1 1-1 1-2 3-3 6-7 10-13 4-5 3-11-2-15z m31-52c0 0-1 0-1 0-3 5-2 12 3 15 6 5 9 4 15-2l0 0c0-1 1-1 1-2 3-3 6-7 10-13 4-5 3-12-2-15-2-2-4-2-7-2-3 0-6 1-8 4 0 0-10 13-11 15z m49-108c-2-3-5-4-9-4-2 0-4 1-6 2-20 16-23 19-16 27 3 5 10 6 15 2 0 0 0 0 0 0l14-12c5-4 6-11 2-15z m18 193c-1 0-2 0-2 0-6 0-10 4-11 9l-4 19c-1 6 3 12 9 13 7 1 9 0 12-9l0 0c1-1 1-1 1-2 1-4 2-10 3-17 1-6-2-11-8-13z m24-77c-1 0-2-1-3-1-5 0-9 4-10 9l-4 19c0 0 0 0 0 0-1 6 3 12 8 13 8 1 10 0 13-9l0 0c0 0 1-1 0-2 2-4 3-9 4-17 1-5-3-11-8-12z m25-95c-1 0-1 0-2 0-5 0-10 3-11 8-5 26-6 30 5 32 6 1 12-3 13-8 0 0 0 0 0 0l4-19c1-6-3-12-9-13z"/>
<glyph unicode="&#45;" d="M358 265c34-25 87-19 122 17 39 38 43 97 9 130-33 34-92 30-131-9-35-35-41-88-16-122 0 0 0 0 0-1l-63-62-63 62 33 34c15 15 15 39 0 54l-112 113-137-137 113-113c15-15 39-15 54 0l33 34 63-63-64-64c-8 2-16 0-22-6l-62-63c-9-8-9-23 0-31 4-5 10-7 15-7 6 0 12 2 16 7l63 62c6 6 7 14 5 22l65 64 64-64c-2-8 0-16 6-22l63-62c4-5 10-7 15-7 6 0 12 2 16 7 9 8 9 23 0 31l-63 63c-5 6-14 8-21 6l-64 64 62 63c0 0 1 0 1 0z m116 98c5-5 5-12 0-16l-59-60c-2-2-5-3-8-3-3 0-6 1-8 3-4 5-4 12 0 16l60 60c4 4 11 4 15 0z m-110-25l60 60c4 4 11 4 15 0 5-5 5-12 0-16l-59-60c-2-2-5-3-8-3-3 0-6 1-8 3-4 5-4 12 0 16z"/>
<glyph unicode="&#46;" d="M428 290l-344 0c0-89 69-163 157-171l0-97-38 0c-6 0-11-5-11-11 0-6 5-11 11-11l106 0c6 0 11 5 11 11 0 6-5 11-11 11l-38 0 0 97c88 8 157 82 157 171z m-151 25l128 0c8 13 13 29 13 45 0 47-38 85-84 85-35 0-65-21-78-53 14-17 22-39 22-63 0-5 0-10-1-14z m-100 115c23 0 45-8 62-21 16 31 46 53 82 57-13 28-41 46-72 46-44 0-79-35-79-79 0-1 0-2 0-3 2 0 4 0 7 0z m77-115c1 4 2 9 2 14 0 44-36 79-79 79-44 0-79-35-79-79 0-5 0-10 1-14z"/>
<glyph unicode="&#47;" d="M473 347c0 0-24 25-53 22-23-3-17-6-33-7 3 59-36 96-38 97-4 4-11 4-15 0-3-4-3-11 1-15 0 0 34-32 31-82-17 1-9 4-34 7-28 3-53-22-53-22-58-68 22-158 47-175 22-16 45-4 50-1 5-3 28-15 50 1 25 17 105 107 47 175z m-71 61c0 0-3 58 92 42 0 0-23-74-92-42z m-181-97c0-21-17-38-38-38-21 0-38 17-38 38 0 21 17 38 38 38 21 0 38-17 38-38z m-99-80c0-21-17-38-37-38-21 0-38 17-38 38 0 21 17 38 38 38 20 0 37-17 37-38z m110-38c0-21-17-38-38-38-21 0-38 17-38 38 0 21 17 38 38 38 21 0 38-17 38-38z m243 17c-15-22-31-39-43-47-9-6-19-9-30-9-11 0-20 3-26 5-6-2-15-5-26-5-11 0-21 3-30 9-19 13-54 53-67 97-45-1-86-6-122-15 2-7 3-15 1-23-4-23-24-39-47-39-4 0-7 0-10 1-12 2-23 9-31 20 0 1-1 3-2 4-22-16-34-34-34-53 0-58 113-105 252-105 139 0 252 47 252 105 0 20-13 39-37 55z m-233-26c-5-23-25-39-48-39-3 0-6 0-9 1-26 5-43 30-38 56 4 23 24 40 47 40 3 0 6-1 9-1 13-3 24-10 31-21 7-10 10-23 8-36z m-130 173c1-1 47 18 40 47-7 26-5 53-5 53-97-53-35-100-35-100z m-8-52c-3 0-6 1-8 4-38 47-79 27-81 26-5-2-11 0-14 5-2 5 0 11 5 14 0 0 58 29 106-32 4-5 3-11-1-15-2-1-5-2-7-2z"/>
<glyph unicode="&#58;" d="M213 512l86 0 0-56-86 0z m83-77l-80 0c-28 0-76-112-76-140l0-244c0-28 23-51 51-51l130 0c28 0 51 23 51 51l0 244c0 28-48 140-76 140z m21-312c0-10-8-19-19-19l-84 0c-11 0-19 9-19 19l0 116c0 11 8 20 19 20l84 0c11 0 19-9 19-20z"/>
<glyph unicode="&#59;" d="M501 512l-460 0c-6 0-11-5-11-11l0-186c0-6 5-11 11-11l158 0 0-59c0-6 5-11 11-11 6 0 10 5 10 11l0 59 150 0 0-220-44 0 0 0-278 0 0 0-7 0c-6 0-11-5-11-11l0-62c0-6 5-11 11-11l460 0c6 0 11 5 11 11l0 490c0 6-5 11-11 11z m-314-248c0 6-4 11-10 11l-166 0c-6 0-11-5-11-11 0-6 5-10 11-10l166 0c6 0 10 4 10 10z m-60-42l0-19c-6 6-13 9-21 8-16-3-26-25-22-51 5-26 21-44 38-41 4 1 7 2 10 5 10-23 33-39 59-39l37 0c35 0 64 28 64 64l0 73z m-7-93c-9-1-22 12-25 33-3 19 3 37 13 39 6 1 14-5 19-15l0-37c0-5 1-9 1-13-2-4-5-6-8-7z"/>
<glyph unicode="&#60;" d="M428 433c0 44-48 79-106 79l-132 0c-58 0-106-35-106-79 0-43 48-78 106-78l53 0c-1-3-2-5-2-8l0-80c0-6 4-12 10-14 36-12 72-31 74-39 1-10-36-23-56-30-37-14-73-27-76-55-3-24 32-44 66-57l0-57c0-8 7-15 15-15 8 0 15 7 15 15l0 68c0 6-4 12-10 14-25 9-51 22-56 30 4 10 37 22 57 29 37 13 75 27 75 58 0 28-49 51-84 64l0 69c0 3-1 5-2 8l53 0c58 0 106 35 106 78z"/>
<glyph unicode="&#61;" d="M12 97c0-21 12-38 26-38l220 0c14 0 26 17 26 38l0 4-272 0z m272 68c-11 0-18-7-23-13-1-2-3-3-4-5-3-2-11-9-19-5-4 2-9 5-13 9-2 2-4 4-6 6-11 8-23 8-35 2-5-2-9-6-13-9-7-4-14-9-19-10-8 0-16 3-24 10-9 7-22 15-37 16-6 0-13 0-20-6-2-1-4-3-6-5-1-1-2-2-3-3-10-8-24-14-43 9-3 5-10 5-15 2-5-4-5-11-2-16 23-27 49-31 73-12 2 1 4 3 6 5 1 1 2 2 3 3 1 1 3 1 7 1 7 0 14-4 23-11 12-10 24-15 37-15 0 0 1 1 2 1 11 0 21 7 30 14 4 2 8 5 11 7 5 3 8 2 11-1 2-1 4-3 6-4 5-5 11-10 17-13 14-7 31-3 44 10 2 2 4 3 5 5 5 5 6 6 8 6 6 1 11 6 11 12-1 6-5 11-12 10z m217 192l-108 0c4 61 32 87 33 88 4 4 4 11 0 15-4 5-11 5-15 1-2-1-35-33-39-104l-101 0c-6 0-10-5-10-11 0-6 4-11 10-11l19 0 26-277c1-5 5-10 11-10l119 0c5 0 10 5 11 10l26 277 18 0c6 0 11 5 11 11 0 6-5 11-11 11z m-471-170l238 0c0 0 31 1 11 51-25 60-163 126-254 14 0-1-36-52 5-65z m178 55c5 0 9-4 9-9 0-5-4-9-9-9-6 0-10 4-10 9 0 5 4 9 10 9z m-60 38c6 0 11-5 11-11 0-6-5-11-11-11-7 0-12 5-12 11 0 6 5 11 12 11z m-67-38c5 0 10-4 10-9 0-5-5-9-10-9-5 0-9 4-9 9 0 5 4 9 9 9z"/>
<glyph unicode="&#62;" d="M501 512l-490 0c-6 0-11-5-11-11 0-33 4-65 12-97 33-125 124-210 229-218l0-165-124 0c-5 0-10-4-10-10 0-6 5-11 10-11l278 0c5 0 10 5 10 11 0 6-5 10-10 10l-124 0 0 165c105 8 196 93 229 218 8 32 12 64 12 97 0 6-5 11-11 11z m-10-21c-1-25-4-49-10-73l-450 0c-6 24-9 48-10 73z m-364-152c-5 0-10 4-10 9 0 5 5 9 10 9 5 0 9-4 9-9 0-5-4-9-9-9z m96-67c-10 0-18 8-18 18 0 10 8 19 18 19 10 0 19-9 19-19 0-10-9-18-19-18z m109 37c-8 0-14 6-14 14 0 7 6 14 14 14 8 0 14-7 14-14 0-8-6-14-14-14z"/>
<glyph unicode="&#63;" d="M511 138c-1 3-4 6-8 7l-105 18 2 64c0 3-2 6-4 8l-179 176c-3 3-6 4-10 3l-60-15c-2 21-7 64-27 97-2 3-5 4-8 5-3 0-7-1-9-3l-100-103c-2-2-4-6-3-10 1-3 3-6 7-7 1-1 41-17 97-17 4 0 7 0 11 1l0-56c0-3 1-5 3-7l167-171c2-2 5-3 9-3l70 7 17-112c0-4 3-7 7-8 1-1 2-1 3-1 3 0 6 1 8 3l110 113c3 3 4 7 2 11z m-152 47c0 0 0 0 0 0-6 0-11 4-11 10 0 1-3 6-40 11-5 0-9 1-12 1-27 6-45 27-45 53 0 21-4 27-19 32-3 1-5 2-8 2-10 3-22 7-32 17-5 6-10 15-13 22-1 3-2 7-2 10 0 1 0 4 0 4-3 5-2 11 3 14 6 3 12 1 15-4 3-3 3-8 3-12 1-1 1-4 1-5 2-4 6-11 9-15 5-5 13-8 22-10 3-1 6-2 9-3 31-10 33-31 33-52 0-19 16-29 29-32 2 0 6-1 10-1 23-3 57-7 58-31 1-6-4-11-10-11z"/>
<glyph unicode="&#64;" d="M483 229c-3 42-37 77-83 85-15 41-53 73-99 82-14 25-41 42-72 42-5 0-10-1-15-2-7 44-46 73-48 74-5 3-11 2-15-2-3-5-2-12 3-15 0-1 35-27 39-63-26-13-44-38-44-66 0-9 2-18 5-26-6-9-11-20-15-31-55 7-103-30-110-78z m-254 187c25 0 46-14 54-33 2-3 3-6 3-9 0-1 0-1 1-1 0-3 1-6 1-9 0-29-27-53-59-53-3 0-5 0-8 1 0 0-1 0-1 0-3 0-5 1-8 1 0 0 0 0 0 0-2 1-5 2-7 3 0 0-1 0-1 0-5 2-9 5-13 8 0 0 0 0 0 0-7 5-12 11-15 18 0 0 0 0 0 0-4 7-6 14-6 22 0 29 27 52 59 52z m272-217l-490 0c-6 0-11-5-11-11 0-5 5-10 11-10l41 0 70-171c2-4 6-7 10-7l248 0c4 0 8 3 10 7l70 171 41 0c6 0 11 5 11 10 0 6-5 11-11 11z m-302-162c-1-1-2-1-3-1-5 0-9 3-10 7l-37 107c-2 5 1 11 6 13 6 2 12-1 14-6l37-107c2-5-1-12-7-13z m68 10c0-6-5-11-11-11-6 0-11 5-11 11l0 106c0 6 5 11 11 11 6 0 11-5 11-11z m96 103l-37-107c-1-4-5-7-10-7-1 0-2 0-3 1-6 1-9 8-7 13l37 107c2 5 8 8 14 6 5-2 8-8 6-13z"/>
<glyph unicode="&#91;" d="M506 158c1 5 3 8 2 13-1 8-5 8-9 14-5 8 2 17-2 26-2 4-11 6-12 9-2 6 1 4 3 9 3 11 1 8-9 13-16 10-5 10 2 19 4 6 4 12 4 19-2-1-6 1-8 0 5 11 21 16 18 30-3 0-7 0-10 0 12 9 19 21 18 36-4 0-9-4-13-5 4 15 22 24 20 43-17-18-40-23-59-36-11-7-18-20-26-29-7-8-10-18-14-26-3-1-6-3-8-4-1 0-1 0-2 0l-7-3 0 71c0 6-5 11-11 11-7 0-12-5-12-11l0-78 0 0c-7 0-13 0-20 0l-14 0 0 88c0 7-5 12-11 12-7 0-11-5-11-12l0-85c-2 1-3 1-4 1l-10 3-21 7 0 85c0 6-5 11-11 11-7 0-11-5-11-11l0-79c-1 0-2 0-2 1l-25 4c-3 0-5 0-8 0l0 84c0 6-5 11-11 11-6 0-11-5-11-11l0-83-15 0c-6-1-12-1-18-2-2 0-4 0-6-1l0 115c0 0-14 16-162-134l56-25-56-26c0 0 35-96 162-135l0 127c1 0 2 0 3 0l2 1c5 3 8 4 11 4 3 1 5 1 8 1l15 0 0-93c0-6 5-11 11-11 6 0 11 5 11 11l0 93c3-1 5-1 8-1l25-6c0-1 1-1 2-1l0-95c0-7 5-12 11-12 6 0 11 5 11 12l0 88 21-6c5-1 9-2 14-3l0-90c0-6 5-11 11-11 6 0 11 5 11 11l0 89 14-1c7 0 14 0 21 1l0-99c0-6 4-11 11-11 6 0 11 5 11 11l0 101 7 2c9 2 17 5 24 8 3-11 8-21 16-33 21-28 64-32 66-72 13 12-2 31-1 46z m-396 77c-16 0-29 13-29 29 0 16 13 29 29 29 16 0 29-13 29-29 0-16-13-29-29-29z"/>
<glyph unicode="&#93;" d="M346 138l-157 0-54-46 0-92 265 0 0 92z m-63-80l-35 0c-6 0-11 5-11 11 0 6 5 11 11 11l35 0c6 0 11-5 11-11 0-6-5-11-11-11z m-144 454l0-29-64 0c-6 0-11-5-11-11l0-207c0-7 5-12 11-12 6 0 11 5 11 12l0 195 53 0 0-174c0-55 26-103 65-129l125 0c39 26 65 74 65 129l0 154 54 72z m168-302l-84 0c-6 0-11 5-11 11 0 7 5 12 11 12l84 0c6 0 11-5 11-12 0-6-5-11-11-11z m0 70l-84 0c-6 0-11 5-11 11 0 6 5 11 11 11l84 0c6 0 11-5 11-11 0-6-5-11-11-11z m0 69l-84 0c-6 0-11 5-11 11 0 7 5 12 11 12l84 0c6 0 11-5 11-12 0-6-5-11-11-11z m0 70l-84 0c-6 0-11 5-11 11 0 6 5 11 11 11l84 0c6 0 11-5 11-11 0-6-5-11-11-11z"/>
<glyph unicode="&#94;" d="M489 298l-33 0c-7 99-66 201-186 213-43 4-77-6-101-29-13-14-22-30-27-46l-79 0-58-104 0-332 281 0 0 332-58 104-63 0c5 11 11 22 20 31 18 18 46 26 83 22 120-11 159-119 166-191l-17 0c-10 0-18-8-18-18l0-99c0-10 8-18 18-18l72 0c10 0 18 8 18 18l0 99c0 10-8 18-18 18z m-303 34c0-33-18-59-40-59-23 0-41 26-41 59 0 26 13 49 30 56-1-9 0-14 0-15 1-6 6-10 12-10 6 1 10 6 10 12 0 0-1 5-1 13 18-7 30-29 30-56z"/>
<glyph unicode="&#95;" d="M477 235c0 1 1 1 1 2l0 167c0 59-46 108-101 108l-185 0c-55 0-100-49-100-108l0-158c-22 13-53 30-78 38l-14-30c0 0 33-33 62-81-1-7-2-13-2-20 0-84 101-153 226-153 124 0 226 69 226 153 0 30-13 58-35 82z m-45 115l1 34-113 0c13 8 21 21 21 34 0 25-25 45-57 45-31 0-56-20-56-45 0-13 8-26 21-34l-111 0 2-34c65-29-20-92-20-92l0-1c-2-1-4-3-6-4l0 151c0 47 35 86 78 86l185 0c43 0 78-39 78-86l0-149c-1 0-2 2-3 2l0 1c0 0-85 63-20 92z"/>
<glyph unicode="&#96;" d="M499 356l-486 0c-6 0-11-5-11-11 0-6 5-11 11-11l27 0c0 0 0-1 0-1 0-88 38-165 97-211 0 0-1-1-1-2l-37-91-25 0c-8 0-14-6-14-14 0-8 6-15 14-15l364 0c8 0 14 7 14 15 0 8-6 14-14 14l-25 0-37 91c0 1 0 2-1 2 59 46 97 123 97 211 0 0 0 1 0 1l27 0c6 0 11 5 11 11 0 6-5 11-11 11z m-179-327l-128 0-31 78c29-17 61-26 95-26 34 0 66 9 95 26z m-15 364c6 0 10 4 10 10l0 64c0 6-4 11-10 11-6 0-11-5-11-11l0-64c0-6 5-10 11-10z m-49 0c6 0 11 4 11 10l0 98c0 6-5 11-11 11-6 0-11-5-11-11l0-98c0-6 5-10 11-10z m-49 0c6 0 11 4 11 10l0 64c0 6-5 11-11 11-6 0-10-5-10-11l0-64c0-6 4-10 10-10z"/>
<glyph unicode="&#123;" d="M411 29l-353 0c-8 0-14-6-14-14 0-8 6-15 14-15l353 0c8 0 15 7 15 15 0 8-7 14-15 14z m-93 358c5 0 10 5 10 11l0 52c0 5-5 10-10 10-6 0-11-5-11-10l0-52c0-6 5-11 11-11z m-83 0c6 0 10 5 10 11l0 103c0 6-4 11-10 11-6 0-11-5-11-11l0-103c0-6 5-11 11-11z m-83 0c6 0 10 5 10 11l0 52c0 5-4 10-10 10-6 0-11-5-11-10l0-52c0-6 5-11 11-11z m264-59l-42 0c-1 0-2 0-3 0l3 24-278 0 28-282 222 0 9 95c0 0 0 0 0 0l46 0c29 0 52 20 53 46l14 68c0 1 0 2 0 2 0 26-23 47-52 47z m17-114c0-1 0-2 0-2 0-14-14-26-32-26l-44 0 12 122c2-1 3-1 5-1l42 0c16 0 30-11 31-25z"/>
<glyph unicode="&#124;" d="M316 510c-239 23-305-128-305-128l490-139z m-121-118c-12 0-22 10-22 22 0 12 10 21 22 21 11 0 21-9 21-21 0-12-10-22-21-22z m128-55c-11 0-20 9-20 19 0 11 9 20 20 20 11 0 19-9 19-20 0-10-8-19-19-19z m-312 16l0-353 490 24 0 198z m103-149c-12 0-21 9-21 21 0 12 9 22 21 22 12 0 22-10 22-22 0-12-10-21-22-21z m59-133c-21 0-37 16-37 37 0 21 16 38 37 38 21 0 37-17 37-38 0-21-16-37-37-37z m205 25c-28 0-50 22-50 50 0 27 22 49 50 49 27 0 49-22 49-49 0-28-22-50-49-50z"/>
<glyph unicode="&#125;" d="M218 229c-3 4-2 11 3 14 5 4 12 2 15-2 34-50 92-118 135-139l14 96c-6 8-11 15-15 19-4 5-3 11 1 15 5 4 11 3 15-1 1-1 2-2 3-4l13 86c0 3-1 6-3 8-2 3-5 4-8 4l-6 0c2 11 0 23-6 35 4 7 8 17 8 29 0 9 4 14 10 24 3 4 6 8 9 13 0 1 1 2 1 3l16 28c3 5 2 12-3 15l-39 22c-5 3-11 2-14-3l-17-28c-1-1-1-2-2-2-3-6-5-10-7-14-6-11-9-16-17-21-10-6-17-14-21-21-18 0-33-7-41-19 0-1-1-1-1-2l-14-23-11 27c-1 0-1 1-1 1-7 13-21 22-39 25-3 7-9 16-18 23-8 6-10 11-15 22-1 4-3 9-6 15 0 1-1 1-1 2l-13 30c-2 2-4 4-6 5-3 1-6 1-8 0l-41-18c-6-3-8-9-6-14l14-30c0-1 0-2 0-3 3-5 5-10 7-14 6-10 8-16 8-25-1-12 1-22 4-30-9-14-12-31-7-44 0-1 0-1 1-2l2-6-30 0c-3 0-6-1-8-4-2-2-3-5-3-8l44-304c1-5 6-9 11-9l222 0c6 0 10 4 11 9l10 72c-65 26-139 133-150 148z m61 143c0 1 0 1 0 1 5 8 16 12 29 11 4 0 8 2 10 6 2 3 8 13 17 18 13 8 19 18 25 29 1 3 3 6 5 10 1 1 1 2 2 2l13 22 20-12-13-21c0-1-1-2-1-3-2-4-4-7-6-10-8-11-14-20-14-36 0-10-6-20-8-23-3-4-3-8 0-12 6-10 8-21 4-29l-98 0-6 13z m-151-33c0 0 0 0 0 0-3 9 0 20 8 30 2 3 3 8 1 12-2 4-6 14-5 24 1 16-4 26-10 37-1 3-3 7-5 10 0 1 0 2-1 3l-10 23 21 9 11-22c0-1 1-2 1-3 2-4 3-7 4-10 5-12 9-23 22-32 8-6 12-15 14-20 2-4 6-7 10-7 13-1 23-6 27-14 0 0 0-1 0-1l24-53-105 0z m261-112l-4-29c18-25 40-62 35-84-2-8-7-13-15-16-9-4-21-2-34 4l-3-21c9-4 19-6 27-6 7 0 13 1 19 3 14 6 23 17 27 31 9 42-38 102-52 118z"/>
<glyph unicode="&#126;" d="M512 339c-4 43-40 72-42 73-2 1-4 2-6 2l-38 0c-1 0-1 0-2 0-1 0-1 0-2 0l-130-3c0 0 0 0-1 0l-132-4c0 0 0 0 0 0-52-3-90-41-105-59 0 0-1-1-1-1-3-3-6-6-8-9-1-2-3-4-4-5-2-2-3-5-5-7-1-1-2-3-3-4 0 0-1-1-2-2-3-2-6-4-8-9-3-7-4-15-5-23-1-3-1-5-1-8-1-1-1-2-3-5-1-2-3-6-5-10-1-8 1-15 3-19 1-1 1-2 1-3 2-6 2-19 0-24 0 0 0 0 0 0-3-1-8-3-11-9-4-8-2-17 1-27l0-3c4-17 13-27 22-36 2-2 4-4 6-6 6-8 14-17 27-16 4 0 8 1 11 2 7-8 20-6 25-5 2 0 5 0 6 0 1 0 3-1 5-2 2-1 5-3 8-4 8-3 15-3 22-3 3 0 5 0 8 0 2 0 6 1 7 0 1 0 1-1 2-2 2-1 4-4 7-6 6-4 13-4 18-4 2 0 3 0 4 0l2 0c15 0 33 0 49 6 4 1 9 3 13 6 2 0 4 0 6 1 2 1 3 3 4 4l228 149c0 1 1 1 2 2 20 23 29 48 27 73z m-434 1l61 11c-4-3-7-6-10-9-3-4-9-10-11-11-3 0-6-1-10-1-7-2-16-4-21-4-3 1-6 4-9 8 0 0 0 0 0 0 0 2 0 4 0 6z m194-148l-1 4c-2 8-5 19-16 22-6 1-11 1-15 0 0 1 1 2 1 3 2 14 1 19-5 31l-2 2c-4 8-8 17-22 17 0 0 0 0 0 0l-3 0c-11 1-29 1-38-11-3-3-4-8-4-11-1-1-1-2-1-3-1-3-3-6-5-9-1-2-2-3-3-5-2-4-3-8-5-12-1-4-4-13-6-14-1 0-6 0-7 1 0 0-1 2-1 2-1 4-4 8-9 11-6 3-12 2-18 2-1 0-3-1-4-1-22 1-27 7-28 9-1 0-2 2 0 6 1 2 8 8 12 9 1 1 1 1 5-1 2 0 3-1 4-1 18-7 27-2 31 3 2 3 3 6 3 9 1 0 1 0 1 1 1 0 2 1 3 1 1 1 1 1 2 2 6 3 19 11 16 25-1 5-4 8-6 10 1 0 3 0 4 0 1 0 3-1 4-1 24-1 40 8 41 23 1 8 0 27-9 36-3 4-6 5-10 7l41 7c20-14 39-35 58-63 37-55 17-104-6-136 3 9 0 18-2 25z m-22 179c-7 7-14 12-22 17l59 1c2-2 5-5 9-9z"/>
<glyph unicode="&#92;" d="M490 273c-25 28-78 34-109 53-46 29-58 58-119 58-51 0-83-10-118-44-30-30-77-41-104-71-106-72 23-140 101-141 83-1 167 6 251 11 40 2 96 0 116 43 11 23-1 71-18 91z m-242-55c-49 0-89 27-89 61 0 34 40 62 89 62 49 0 88-28 88-62 0-34-39-61-88-61z"/>
<glyph unicode="&#57344;" d="M508 292c-12 29-45 43-78 37-37-7-64-34-102-36-16 0-42-4-56 6-25 17 3 29 24 30 24 1 47 3 61 24 6 9 7 18 7 28-1 14-3 16-17 21-24 9-64 23-68 49-5 27 11 45 37 55-68 20-174-8-208-67-5-9-12-26-7-37 19-44 86-36 94-39 28-13-9-25-23-27-32-3-60 27-95 17-8-2-14-7-21-9-9-3-16-5-25-9-15-6-22-14-28-29-8-21 3-79 3-79l456 0c16-3 43 14 48 28 4 12 2 26-2 37z m-464-239c0-29 20-53 45-53l306 0c24 0 44 24 44 53l36 142-467 0z"/>
<glyph unicode="&#57345;" d="M334 376c-4 13-9 26 0 38-13-7-28-13-39-21-12-9-11-18-12-29-10 12-17 19-13 35 5 16 9 27-2 42-10 12-26 20-36 32-7 7-18 27-13 39-7-9-19-16-24-26-7-12-8-23-8-35 1-16 10-25 14-40 4-15-4-24-15-35 5 15-5 18-19 27-10 6-17 19-15 30-7-9-21-19-27-25-12-13-19-23-24-39-3-10-3-21 0-31l240 1c2 14-2 24-7 37z m121-73l-65 0 4 4-347 0 94-110 158 0 73 85 83 0c5 0 10 5 10 10 0 6-5 11-10 11z m-277-239c-2-3-5-4-8-4-2 0-5 0-7 2-4 3-5 10-1 14 0 1 16 19 42 36-10 6-21 10-34 10-32 0-58-25-58-56 0-31 26-56 58-56 32 0 58 25 58 56 0 12-3 22-9 31-24-14-39-32-41-33z m208-51l-45 147c-1 5-6 8-10 8l-225 0c-6 0-10-5-10-10 0-6 4-11 10-11l217 0 6-19c-51 18-95 2-125-16 6-4 11-9 15-15 28 17 70 29 118 5l29-95c1-4 6-7 10-7 1 0 2 0 3 0 6 2 9 8 7 13z"/>
<glyph unicode="&#57346;" d="M312 367c0 0 0 0 0 0l54-11c0 0 0 0 0 0 0 0 0 0 1-1l3 0c1-1 2-1 3-1 0 0 0 0 0 0 2 0 5 0 7 0 12 0 24 4 35 10 15 10 25 25 28 43 7 33-13 67-45 77-1 0-1 0-2 0l-4 1c0 0 0 0 0 0 0 0 0 0 0 0l-54 12c-17 4-34 0-48-9-12-8-20-19-25-31l-252 55c-6 1-11-3-13-9-1-5 3-11 9-13l251-55c-1-31 21-61 52-68z m200-68c0 1 0 2 0 3l-481 0c0-1 0-2 0-3 0-90 48-169 120-211l0 0c-11-9-18-19-18-29 0-33 62-59 138-59 77 0 139 26 139 59 0 10-7 20-19 29 72 42 121 121 121 211z"/>
<glyph unicode="&#57347;" d="M512 382c0 1 0 2 0 2-1 1-1 2-1 2 0 1-1 1-1 2 0 0-1 1-1 1-1 1-1 1-2 1 0 1-1 1-2 2 0 0 0 0 0 0l-357 119c-3 2-7 1-10-1l-133-89c-4-3-6-8-4-12-1-2-1-3-1-5l0-393c0-3 1-6 4-8 1-2 4-3 7-3 0 0 0 0 1 0l490 49c6 0 10 5 10 10l0 323c0 0 0 0 0 0z m-399-86c0 8 6 15 13 15 6 0 12-7 12-15 0-9-6-16-12-16-7 0-13 7-13 16z m69-162c0 21 14 38 31 38 18 0 32-17 32-38 0-20-14-37-32-37-17 0-31 17-31 37z m161 145c0 15 11 27 23 27 13 0 24-12 24-27 0-15-11-28-24-28-12 0-23 13-23 28z m-197 211l279-94-392 18z m29-36c0 6-11 12-24 12-14 0-25-6-25-12 0-7 11-12 25-12 13 0 24 5 24 12z"/>
<glyph unicode="&#57348;" d="M504 325c-11 18-27 28-46 32-25 4-51-7-68-16 0 4-1 9-2 14l-380 0c-5-28-8-58-8-89 0-106 33-199 83-256l230 0c18 20 34 46 47 75 0 0 0 0 0 0 20 14 190 165 144 240z m-124-185c10 38 16 81 16 126 0 15 0 29-2 43 13 9 39 23 60 19 10-2 19-8 26-19 21-35-50-120-100-169z m-119 247c5 0 10 5 10 10l0 57c0 6-5 10-10 10-6 0-11-4-11-10l0-57c0-5 5-10 11-10z m-63 0c6 0 11 5 11 10l0 95c0 6-5 10-11 10-6 0-10-4-10-10l0-95c0-5 4-10 10-10z m-62 0c5 0 10 5 10 10l0 57c0 6-5 10-10 10-6 0-11-4-11-10l0-57c0-5 5-10 11-10z"/>
<glyph unicode="&#57349;" d="M505 403c-30 11-61 8-87 0l37 36c4 5 4 12 0 16-4 4-11 4-16 0l-44-45c11 44 9 89 9 92 0 6-5 10-11 10-6 0-11-5-11-11 0-1 4-89-28-131-1-1-1-2-2-3-44 38-107 39-145 2-11-12-38-45-68-86l48-48c6-6 6-16 0-21-3-3-7-5-11-5-3 0-7 2-10 5l-45 44c-68-96-144-223-115-252 21-20 90 12 163 57l-34 34c-6 6-6 15 0 21 6 6 15 6 21 0l37-37c1-1 1-2 2-2 53 34 105 72 139 99l-62 62c-6 6-6 15 0 21 6 6 15 6 21 0l63-62c0-1 0-2 1-2 5 4 9 8 12 10 38 38 36 102-3 146 1 1 2 1 3 2 1 0 69 49 128 28 6-2 12 1 14 6 2 6-1 12-6 14z"/>
<glyph unicode="&#57350;" d="M326 467c-13 0-25-4-34-10-10 17-31 29-56 29-11 0-22-2-31-7-11 20-35 33-63 33-34 0-62-20-67-46-28-3-49-22-49-45 0-25 26-46 57-46l243 0c32 0 57 21 57 46 0 25-25 46-57 46z m105-183l-52 0 0 16c0 25-25 45-55 45l-239 0c-30 0-55-20-55-45l0-254c0-25 25-46 55-46l239 0c30 0 55 21 55 46l0 60 30 0c30 0 55 19 55 44l21 86c1 1 1 2 1 3 0 25-25 45-55 45z m-293-215c0-5-4-10-10-10-6 0-11 5-11 10l0 205c0 6 5 10 11 10 6 0 10-4 10-10z m77 0c0-5-4-10-10-10-6 0-11 5-11 10l0 205c0 6 5 10 11 10 6 0 10-4 10-10z m77 0c0-5-5-10-10-10-6 0-11 5-11 10l0 205c0 6 5 10 11 10 5 0 10-4 10-10z m151 85c0-1 0-2 0-3 0-14-15-25-34-25l-30 0 0 138 52 0c17 0 33-11 33-24z"/>
<glyph unicode="&#57351;" d="M331 446l-6-7c0 0 89-256-258-150 0 0-103 29-54-59 0 0 22-65 84-92 1-1 1 0 1 0 1 0 1 1 1 1 0 0 0-1-1-1 0 0 0 0 0-1 145 15 437 74 233 309z m24 29l-9-11 2-3c67-77 90-146 67-203-38-95-192-130-315-143l-9-1c-8-32 52-56 52-56 72-37 311-48 361 153 50 201-149 264-149 264z"/>
<glyph unicode="&#57352;" d="M256 98c-29 0-57 4-82 11-19-10-39-20-62-30l6-2c39-19 88-29 138-29 42 0 83 7 118 20l27 11c-23 10-43 20-63 30-25-7-53-11-82-11z m-211 41c17 7 33 13 47 20l-5 7c-19 28-29 63-29 100 0 82 49 148 109 148 48 0 89-41 104-101 0 0 3-18-5-40l-2-4c6-11 15-23 30-34 3-2 5-4 7-6l10 22c16 38 10 69 9 73-20 84-82 140-153 140-88 0-159-89-159-198 0-47 12-91 37-126z m198 34c-13 11-27 24-35 36l-14-11c-48-33-96-56-178-87-6-2-11-6-14-13-3-6-3-12 0-19 3-10 13-16 23-16 3 0 6 0 9 1 88 33 140 59 193 97z m59 229l8 3c11 6 23 8 35 8 61 0 110-66 110-147 0-35-9-69-26-95l-8-13c14-7 30-13 47-20l5 8c21 35 32 76 32 120 0 109-72 198-160 198-20 0-41-5-60-15l-16-9c12-11 24-24 33-38z m208-304c-3 7-8 11-14 13-86 32-136 57-189 95l0 0c0 0-4 3-10 7-2 2-4 4-7 6-2 2-5 3-5 4 0 0-1 0-1 0-3 3-6 6-9 8-1 1-2 2-2 3-3 2-5 4-7 6-1 1-1 2-2 3-2 2-4 5-6 7 0 1 0 1-1 2-2 3-4 7-6 10 0 0 0 0 0 0l-3 6 0 0c-10 24-7 42-7 43 2 7 4 13 7 21l1 1c-9 20-21 37-35 48l-10-24c-5-12-9-23-11-34-1-4-17-79 61-140 66-51 120-80 224-119 3-1 6-1 9-1 10 0 20 6 23 16 3 7 2 13 0 19z"/>
<glyph unicode="&#57353;" d="M366 344c0 4 0 8 0 12 0 86-49 156-110 156-61 0-110-70-110-156 0-4 0-8 0-12z m66-53c0 6-5 10-11 10l-330 0c-6 0-11-4-11-10 0-92 71-168 161-176l0-94-41 0c-6 0-11-4-11-10 0-6 5-11 11-11l112 0c6 0 11 5 11 11 0 6-5 10-11 10l-41 0 0 94c90 8 161 84 161 176z"/>
<glyph unicode="&#57354;" d="M510 149l-74 246c-4 11-15 19-25 19l-40 0c-10 0-19 9-19 20l0 8c0 11 9 20 19 20l107 0c10 0 19 9 19 20l0 10c0 11-9 20-19 20l-444 0c-10 0-19-9-19-20l0-10c0-11 9-20 19-20l107 0c10 0 19-9 19-20l0-8c0-11-9-20-19-20l-40 0c-10 0-22-8-25-19l-74-246c-3-11-3-28 0-39l28-91c4-10 15-19 25-19l402 0c10 0 21 9 25 19l28 91c3 11 3 28 0 39z m-254-70c-68 0-123 57-123 128 0 71 55 128 123 128 68 0 123-57 123-128 0-71-55-128-123-128z m0 228c-6 0-11-5-11-11l0-92c0-6 5-11 11-11 6 0 11 5 11 11l0 92c0 6-5 11-11 11z"/>
<glyph unicode="&#57355;" d="M137 399l-2 25 264 0-1-17c6 9 10 20 10 32 0 28-23 51-51 51-11 0-21-3-29-8-8 8-20 13-33 13-9 0-17-2-25-6-10 14-26 23-45 23-27 0-50-20-54-46-3 0-5 0-8 0-20 0-37-17-37-37 0-10 3-18 9-24-19-10-31-29-31-50 0-28 20-51 46-56-8 52-13 97-13 100z m197-219c25 69 41 221 41 221l-216 0c0 0 15-152 41-221 25-69-31-148-31-148l32-32 132 0 32 32c0 0-56 79-31 148z m-108 58c0 11 9 21 21 21 12 0 21-10 21-21 0-12-9-21-21-21-12 0-21 9-21 21z m46-75c-6 0-12 6-12 12 0 7 6 12 12 12 7 0 12-5 12-12 0-6-5-12-12-12z m22 122c-14 0-26 12-26 27 0 15 12 27 26 27 15 0 27-12 27-27 0-15-12-27-27-27z"/>
<glyph unicode="&#57356;" d="M512 358c0 85-64 154-142 154-47 0-88-24-114-61-26 37-67 61-114 61-78 0-142-69-142-154 0-74 49-136 114-150l0-208 300 0 0 213c57 20 98 78 98 145z"/>
<glyph unicode="&#57357;" d="M501 309l-490 0c-6 0-11-5-11-10 0-6 5-11 11-11l164 0 0-153c0-27 22-50 50-50l201 0c27 0 50 23 50 50l0 153 25 0c6 0 11 5 11 11 0 5-5 10-11 10z m-115 22c6 0 11 5 11 11l0 50c0 5-5 10-11 10-6 0-11-5-11-10l0-50c0-6 5-11 11-11z m-61 0c6 0 11 5 11 11l0 74c0 6-5 11-11 11-6 0-10-5-10-11l0-74c0-6 4-11 10-11z m-60 0c5 0 10 5 10 11l0 50c0 5-5 10-10 10-6 0-11-5-11-10l0-50c0-6 5-11 11-11z"/>
<glyph unicode="&#57358;" d="M15 376l116-26c-50-8-104-21-108-47 0 0 0 0 0 0 0-1 0-2 0-3 0-3 0-5 1-8l34-164c2-44 130-56 198-56 68 0 196 12 198 56l34 164c1 3 1 5 1 8 0 39-108 51-160 55-6 9-14 16-24 20-1 0-2 1-3 1l-3 1c0 0 0 0 0 0 0 0 0 0 0 0l-40 9c0 0 0 0 0 0-13 3-26 1-37-7-9-5-15-13-19-23-1 0-2 0-3 0l-180 41c-6 2-12-2-13-8-1-6 2-11 8-13z m453-76c0 0-1 0-1 0 0 0 0 0 0 0-2-5-11-10-27-15 0 0 0 0 0 0-3-1-6-2-9-3-1 0-1 0-2 0-3-1-6-2-9-3-1 0-2 0-3 0-3-1-7-2-10-3-1 0-2 0-3 0-4-1-8-2-12-2-1 0-1 0-2-1-5 0-9-1-14-2 0 0-1 0-2 0-5-1-9-1-15-2 0 0-1 0-2 0-5-1-10-1-16-2-1 0-2 0-3 0-5 0-10-1-16-1-2 0-3 0-5 0-5-1-10-1-16-1-3 0-5 0-8 0-5-1-9-1-14-1-7 0-15 0-23 0-8 0-16 0-23 0-5 0-9 0-14 1-3 0-5 0-8 0-6 0-11 0-17 1-1 0-2 0-4 0-6 0-12 1-17 1-1 0-1 0-2 0-6 1-12 2-17 2-1 0-1 0-1 0-64 7-103 21-108 31 0 0 0 0 0 0 0 0 0 0 0 0 3 9 52 28 153 34l0 0c0-25 17-47 41-53l39-9 0 0 3-1c1 0 2 0 3 0 0 0 0 0 0 0 2 0 3 0 5 0 10 0 19 2 27 8 11 7 20 20 22 34 2 7 2 13 1 19 86-7 126-24 129-32z m-234 61c6 4 13 5 20 4 0 0 0 0 0 0l40-10c16-3 26-20 23-38-2-8-6-16-13-20-6-4-14-5-21-4l-40 9c-15 4-26 21-23 38 2 9 7 16 14 21z m-13 41c6 0 11 5 11 11l0 63c0 6-5 11-11 11-6 0-11-5-11-11l0-63c0-6 5-11 11-11z m50 0c6 0 11 5 11 11l0 88c0 6-5 11-11 11-6 0-11-5-11-11l0-88c0-6 5-11 11-11z m50 0c6 0 11 5 11 11l0 63c0 6-5 11-11 11-6 0-11-5-11-11l0-63c0-6 5-11 11-11z m162-242l-7-35c-7-70-170-75-220-75-50 0-213 5-220 75l-7 35c-15-14-24-31-24-48 0-62 113-112 251-112 138 0 251 50 251 112 0 17-9 34-24 48z"/>
<glyph unicode="&#57359;" d="M429 386c-1 14-5 28-14 40-22 32-67 40-99 17-30-22-39-61-22-93l-170-121c-24 27-64 31-94 10-32-23-40-67-17-99 20-27 54-37 84-26 1-10 5-21 12-31 20-29 61-36 90-15 27 20 35 56 19 85l180 129c22-25 59-30 87-11 29 21 36 62 15 91-17 23-46 32-71 24z"/>
<glyph unicode="&#57360;" d="M490 110c-10 0-19 1-28 3l-7 1c-9 1-18 1-28 1-3 0-6 0-9 0l-18 0c0 0 0 0-1 0-3 0-8-1-12-2-3 0-6-1-9-1-4 0-8-1-12-2-3 5-7 9-9 12l-7 7c9 2 17 4 26 5 2 0 5 0 7 1 5 1 11 2 16 2 1 0 1 0 1 0l18 0c3 0 6 0 9 0 10 0 21 0 32-2l7-1c8-1 16-3 24-3l18 0c-6 23-31 41-55 52 3-9 3-19 3-29l0-4c0-6-5-10-11-10-6 0-11 4-11 10l0 5c0 9 0 18-3 25-2 4-1 8 2 11-5 2-10 3-14 4-14 3-29 4-45 5 0 1 1 2 0 2l-51 252c-4 19-30 26-45 23-7-2-15-8-21-14-7-9-10-19-8-28l68-238c0 0 0 0 0 0 7 1 14 2 21 4 0 0 0 0 1 0-1 0 14-1 14-1-6 0-12 0-18-1 6-3 13-9 20-16 1-1 3-2 4-3 8-7 19-16 20-27 1-6-3-11-9-12-1 0-1 0-2 0-5 0-10 4-11 9 0 3-9 11-12 14-2 1-3 2-5 4-17 16-24 16-25 16-6-1-11 3-12 9 0 1 0 2 0 2-4-1-8-1-12-2 0 0 0 0 0 0l-223 239c-5 6-13 8-22 8-12 0-25-5-33-12-12-12-20-41-4-56l222-205c-24-15-46-36-62-61 4 2 10 3 17 4 3 0 6 0 8 1 6 1 12 2 18 2 5 0 10 0 14 0 6 1 11 1 17 1 6 0 11-5 11-11 0-6-5-11-11-11-5 0-10 0-15-1-5 0-10 0-16 0-4 0-9-1-15-2-2 0-5-1-8-1-9-1-14-2-15-3-2-2-5-4-8-4-2 0-3 1-4 1-3 1-5 3-6 5-8-15-11-29 12-36 6-2 13-3 19-5 0 1 1 3 2 5 3 3 7 5 11 7 1 1 2 2 3 2 2 2 5 4 8 5 1 1 3 2 5 4 5 3 10 6 15 9l2 2c3 2 7 3 10 5 3 2 6 4 9 5 4 3 8 5 12 7 3 1 5 2 8 3 7 4 14 7 22 10l17-16c-10-4-20-8-29-13-3-2-6-3-9-4-4-2-7-3-10-5-3-2-6-4-9-6-3-1-6-3-9-5l-2-1c-5-3-10-6-14-9-2-2-5-4-8-5-2-1-4-2-5-3-2-1-4-3-5-4-1 0-3-1-4-2 7-2 13-2 22-2 26 0 54-2 79 2 27 4 52 10 80 10 49 0 126 0 124 63l-22 0z m-143-28l0 11 0 0z m-80 104l74-80c8-8 8-11 8-11 0 0 0 0-1-1 0-1-1-1-1-1 0 0-3 0-12 8l-83 77z"/>
<glyph unicode="&#57361;" d="M321 319l-8 14c-1 0-3 0-4 0l-106 0c-1 0-3 0-4 0l-8-14-38-308c0 0 59-11 103-11 50 0 103 11 103 11z m-12 122l-42 0 0 61c0 6-5 10-11 10-6 0-11-4-11-10l0-61-42 0c-6 0-11-5-11-11l0-65c0-6 5-10 11-10l106 0c6 0 11 4 11 10l0 65c0 6-5 11-11 11z m-82-65l-13 0 0 43 13 0z m36 0l-14 0 0 43 14 0z m35 0l-13 0 0 43 13 0z"/>
<glyph unicode="&#57362;" d="M297 161c0 6-3 11-9 14 63 34 104 102 104 176 0 6-5 11-11 11l-370 0c-6 0-11-5-11-11 0-74 41-142 104-176-6-3-10-8-10-14 0-25 64-29 102-29 38 0 101 4 101 29z m-39 227c6 0 11 4 11 10l0 60c0 6-5 11-11 11-6 0-10-5-10-11l0-60c0-6 4-10 10-10z m-62 0c6 0 10 4 10 10l0 103c0 6-4 11-10 11-6 0-11-5-11-11l0-103c0-6 5-10 11-10z m-63 0c6 0 11 4 11 10l0 60c0 6-5 11-11 11-6 0-10-5-10-11l0-60c0-6 4-10 10-10z m378-206c-2 6-8 9-13 7l-127-45 110 86c5 4 6 10 2 15-3 5-10 6-15 2l-160-125-165-59c-5-2-8-8-6-13 2-5 6-7 10-7 1 0 2 0 4 0l104 37-78-61c-5-4-5-10-2-15 2-3 6-4 9-4 2 0 4 1 6 2l129 101 186 66c5 2 8 8 6 13z"/>
<glyph unicode="&#57363;" d="M502 437c-87 2-143-56-174-103-5-3-9-6-13-8 40 60 30 171 29 176-1 6-6 11-12 10-6-1-10-6-9-12 0-1 15-156-53-186 0 0 0-1 0-1-21 11-45 17-70 17-84 0-152-68-152-153 0-30 8-58 24-83 0-1 0-3 0-5 0-13 0-21-5-30-13-20-31-27-58-32-4 0-8-4-9-8-1-4 1-9 5-11 10-7 25-8 38-8 4 0 8 0 11 0 6 0 11 0 16 0 16 0 31-1 46 9l6 4c10 7 21 14 33 18 15-5 30-7 45-7 84 0 153 69 153 153 0 36-13 69-33 95 3 9 11 26 23 46 31 15 74 23 123-7 5-4 11-2 14 3 4 5 2 12-3 15-42 26-80 27-112 19 30 36 74 69 136 67 6 0 11 5 11 11 0 6-4 10-10 11z m-198-148c0 0-1 1-1 1 1 0 1 1 2 2 0-1-1-2-1-3z"/>
<glyph unicode="&#57364;" d="M501 323l-56 0-21 32c-1 3-3 4-6 5l-18 6c-3 25-28 50-65 69 0 1 1 2 2 3 2 6 2 13-1 19-4 9-13 16-24 19-5 2-10 3-15 3-14 0-25-7-29-17-1-1-2-3-2-5-12 2-25 3-36 3-29 0-53-7-68-19l-19 6c-2 1-4 1-6 0l-57-19c-5-1-8-5-8-10 0-4 3-8 8-10l267-85-84 0c-7 20-27 33-50 33-22 0-42-13-50-33l-152 0c-6 0-11-5-11-10l0-29c0-6 5-10 11-10l39 0 0-90c0-33 30-60 68-60l276 0c38 0 68 27 68 60l0 90 39 0c6 0 11 4 11 10l0 29c0 5-5 10-11 10z m-313 0c5 7 15 12 25 12 11 0 20-5 26-12z m-28-253l0 26c0 6-5 11-11 11-6 0-10-5-10-11l0-26c0-6 4-10 10-10 6 0 11 4 11 10z m43 0l0 35c0 6-5 11-11 11-6 0-11-5-11-11l0-35c0-6 5-10 11-10 6 0 11 4 11 10z m42 0l0 26c0 6-4 11-10 11-6 0-11-5-11-11l0-26c0-6 5-10 11-10 6 0 10 4 10 10z m43 0l0 35c0 6-5 11-11 11-6 0-10-5-10-11l0-35c0-6 4-10 10-10 6 0 11 4 11 10z m43 0l0 26c0 6-5 11-11 11-6 0-11-5-11-11l0-26c0-6 5-10 11-10 6 0 11 4 11 10z m42 0l0 35c0 6-4 11-10 11-6 0-11-5-11-11l0-35c0-6 5-10 11-10 6 0 10 4 10 10z m70-15l-374 0c-6 0-11-5-11-11 0-6 5-11 11-11l374 0c6 0 11 5 11 11 0 6-5 11-11 11z"/>
<glyph unicode="&#57365;" d="M369 432c-1 4-3 7-6 9-15 7-38 16-66 22 0 1 0 2 0 4 0 25-22 45-48 45-26 0-48-20-48-45 0-1 0-2 0-3-21-4-42-10-62-19-4-2-6-6-6-10-10-8-15-19-16-29-2-4-6-12-11-22l-44 0c-34 0-62-22-62-49l0-173c0-27 25-49 56-49l8 0c3-40 8-60 9-65 1-27 30-48 65-48l222 0c36 0 65 21 66 47 2 9 13 57 13 159 0 90-48 183-57 199-1 10-6 19-13 27z m-309-223c0-29 1-54 2-75l-6 0c-19 0-35 13-35 28l0 173c0 15 19 28 41 28l34 0c-16-39-36-97-36-154z m191 213c-39 0-69 5-84 11 16 5 32 9 48 12 4 0 6 2 8 5 2 3 2 6 1 9-1 3-2 5-2 8 0 13 12 24 27 24 15 0 26-11 26-24 0-3 0-6-1-9-2-3-1-6 0-9 2-3 5-5 8-5 19-3 36-8 49-13-20-6-49-9-80-9z m259-22c-2 3-5 4-8 5l-97 3c0 0 0 0 0 0 0-1 1-2 1-4 1 0 1-1 1-2 13-25 36-77 47-136 5-18 6-38 6-57 0 0 0 0 0 0l52 182c0 3 0 7-2 9z"/>
<glyph unicode="&#57366;" d="M500 381c-11 25-37 10-87-13-48-23-249-186-249-186 0 0-6-40-22-63-17-24-55-24-88-17 0 0-27 15-40 30 0 0 3 71 42 86 0 0 90 93 136 122l181 128c-100 0-258-151-328-203-35-26-45-61-45-93 0-32 10-60 14-67 7-15 28-43 111-55 82-12 87-21 264 116 177 137 111 215 111 215z m-154 5c-2-4-3-7-4-8-1-2-7-5-18-8l-2 0c-20-5-47-11-60-38-10-21-16-27-31-29-32-5-45-22-55-46-6-16-20-23-39-29-2-1-5-1-8-2-8-1-17-3-25-9-17-11-17-26-17-36l0-2c0-8 0-32-6-38 0 0 0 0-3 0-10-1-18-9-18-18 0-6 5-11 11-11 0 0 0 0 0 0 5 0 9 2 11 7 6 0 11 2 15 7 12 11 13 33 13 53l0 2c-1 9 0 13 7 18 4 3 10 4 17 6 3 0 7 1 10 2 20 6 43 16 53 41 8 20 15 29 37 33 26 4 37 17 48 42 8 17 28 21 45 25l2 1c10 2 23 6 30 14 3 5 5 9 7 14 2 6 5 11 9 15 12 8 30 8 46 7 3 0 6 0 8 0 7 0 12 5 12 11 0 6-5 11-12 11-2 0-5 1-8 1-18 0-41 0-59-12-10-8-14-17-16-24z"/>
<glyph unicode="&#57367;" d="M371 169l-20-104c-1-5-6-8-11-8-1 0-1 0-2 0-6 1-9 7-8 13l19 95c-28-3-56-5-83-5l0-98c0-6-5-11-11-11-6 0-10 5-10 11l0 98c-26 0-54 2-84 6l20-96c1-6-3-12-9-13 0 0-1 0-2 0-5 0-9 3-10 8l-21 104c-26 4-52 10-75 18l27-165c1-8 4-22 165-22 151 0 154 14 156 22l34 164c-23-7-48-13-75-17z m-115 343c-140 0-255-108-256-241l0 0 0-5 0-1c7-54 135-84 255-84 119 0 242 28 254 80 3 3 3 6 3 8 0 134-115 243-256 243z m-107-158c-8 0-15 7-15 15 0 8 7 15 15 15 8 0 15-7 15-15 0-8-7-15-15-15z m88-76c-7 0-13 5-13 11 0 6 6 11 13 11 7 0 13-5 13-11 0-6-6-11-13-11z m13 129c-8 0-15 5-15 12 0 6 7 12 15 12 8 0 15-6 15-12 0-7-7-12-15-12z m107-85c-9 0-17 8-17 19 0 10 8 19 17 19 10 0 17-9 17-19 0-11-7-19-17-19z"/>
<glyph unicode="&#57368;" d="M389 349l-13-27c-3 2-7 4-10 6 7 11 11 25 11 38 0 32-20 59-49 69 1 1 1 3 1 4 0 40-33 73-73 73-40 0-73-33-73-73 0-1 0-3 1-4-29-10-49-37-49-69 0-13 4-27 11-38-3-2-7-4-10-6l-13 27c-81-265 73-275 122-272l0-66c0-6 5-11 11-11 6 0 11 5 11 11l0 66c49-3 203 7 122 272z m-132-260c0 0 0 0-1 0 0 0-1 0-1 0l-109 214c1 0 1 0 2 1 5 4 11 7 18 9 3 1 6 4 7 8 1 3 0 7-2 10-10 10-15 22-15 35 0 25 18 46 41 51 3 0 6 2 7 4 2 3 2 5 2 8-1 4-1 7-1 10 0 29 23 52 51 52 28 0 51-23 51-52 0-3 0-6-1-10 0-3 0-5 2-8 1-2 4-4 7-4 23-5 41-26 41-51 0-13-5-25-15-35-2-3-3-7-2-10 1-4 4-7 7-8 7-2 13-5 18-9 1-1 1-1 2-1z m12 305c0-8-6-14-13-14-7 0-13 6-13 14 0 7 6 13 13 13 7 0 13-6 13-13z m-38-72c0-7-6-13-13-13-7 0-13 6-13 13 0 8 6 14 13 14 7 0 13-6 13-14z m71-29c0-7-6-13-13-13-7 0-13 6-13 13 0 7 6 13 13 13 7 0 13-6 13-13z m-39-58c0-7-6-13-13-13-7 0-13 6-13 13 0 8 6 13 13 13 7 0 13-5 13-13z"/>
<glyph unicode="&#57369;" d="M500 158c-4 8-11 12-18 13-11 2-21-2-27-6 0 1 0 2-1 3l-121 0c-1-10-2-20-2-31 0-37 10-69 26-89l73 0c5 6 9 13 13 21 0-1 1-1 1-1 2 0 4 1 5 2 1 0 71 57 51 88z m-47-61c2 13 4 26 4 40 0 3 0 5 0 8 1 0 2 1 3 1 2 3 12 9 18 7 2 0 4-1 7-4 5-9-15-35-32-52z m-108 208c0 0-36 23-72-16-21-23-26-18-30-12 16 26 28 54 28 73-1 21-22 48-49 70 7-1 15 2 20 9 7 10 5 24-5 32-10 7-24 5-32-5-5-6-5-14-3-21-28 19-59 31-80 29-3-1-7-2-11-4-1 0-1 0-2-1-2 12-8 32-23 40-6 4-17 7-33-1-42-20-35-88-31-128l1-8c-2-5-4-9-5-12-3-10-4-20-3-27 0-1 0-2 0-2l146-111c0 0 1-1 2 0 12 0 26 8 39 19l0 0c0 0 39-23 61 7 22 31 55 61 74 50l-7 13z m-306 81c-3 36-4 83 22 96 10 5 15 2 16 1 10-6 14-27 15-35 0-1 0-1 1-2-16-15-38-39-54-60z m368-206c0 0 0 0-1 0-5 0-10 5-9 11 3 49-38 70-40 71-5 3-7 9-4 14 2 6 9 8 14 5 2-1 55-29 51-92-1-5-5-9-11-9z m91-171l-484 0c-8 0-14 6-14 14 0 8 6 15 14 15l484 0c8 0 14-7 14-15 0-8-6-14-14-14z"/>
<glyph unicode="&#57370;" d="M506 346c-1 3-2 5-5 7-15 33-80 55-156 64l19 47 132 27c6 1 9 7 8 12-1 6-7 10-12 9l-138-28c-3-1-6-4-8-7l-23-57c-22 2-45 3-68 3-112 0-231-26-247-74-1-1-2-2-2-3-4-20-6-41-6-62 0-156 115-284 256-284 141 0 256 128 256 284 0 21-2 42-6 62z m-251-72c-141 0-228 37-228 64 0 27 87 64 228 64 21 0 41-1 60-3l-31-76c-2-6 0-12 6-14 1-1 3-1 4-1 4 0 8 3 10 7l33 82c92-11 146-38 146-59 0-27-87-64-228-64z m85 102l-26-65c-4-8-11-14-20-14-3 0-6 1-8 2-11 4-16 17-12 28l22 53c-12 1-24 1-36 1-97 0-176-20-176-45 0-25 79-45 176-45 97 0 176 20 176 45 0 18-39 33-96 40z"/>
<glyph unicode="&#57371;" d="M453 483c-105 26-136-69-136-69 97-26 136 69 136 69z m-234-69c0 0-31 95-135 69 0 0 38-95 135-69z m64-42c10 83-17 131-18 133-5 7-14 9-21 5-7-4-9-13-5-20 0-1 24-42 14-117-129-1-196-84-196-186 0-103 89-187 199-187 110 0 199 84 199 187 0 96-41 176-172 185z"/>
<glyph unicode="&#57372;" d="M440 316l-42 49 0 30c0 5-5 9-11 9l-262 0c-6 0-11-4-11-9l0-30-42-49c-1-2-2-4-2-6l0-221c0-2 1-5 4-7l97-80c2-1 5-2 7-2l156 0c2 0 5 1 7 2l97 80c3 2 4 5 4 7l0 221c0 2-1 4-2 6z m-216-263c-55 0-100 30-100 68 0 37 45 67 100 67 56 0 101-30 101-67 0-38-45-68-101-68z m143 33c-10-7-22-10-36-9 10 13 15 28 15 44 0 49-51 87-118 88 1 17 8 31 20 40 30 22 81 3 114-42 33-45 35-99 5-121z m-266 338l310 0c5 0 10 5 10 10l0 68c0 6-5 10-10 10l-310 0c-5 0-10-4-10-10l0-68c0-5 5-10 10-10z"/>
<glyph unicode="&#57373;" d="M396 351c0-83-90-156-54-107 34 46 21 111 18 127-29 13-62 23-98 26-7 1-13 1-20 1 55-73-1-201 9-136 11 65-43 124-43 124 0 0-1 3-2 8-38-8-72-27-101-50 68-58 45-192 39-127-4 52-48 91-65 105-51-49-79-104-79-104 13-115 140-71 260-98 119-27 246 41 252 79 4 26-38 101-116 152z"/>
<glyph unicode="&#57374;" d="M512 245c-2 5-8 8-14 7l-5-2c-3-1-6-2-9-3-7-2-12-7-17-11-13-11-23-18-39-10-22 12-32 15-55 1-11-6-21-11-35-10-8 0-13 3-19 6-3 2-6 4-10 5-11 4-19 0-29-5-7-3-15-7-24-8l-2 0c-11 0-20 6-28 11-9 5-17 11-29 8-4-1-9-4-13-7-4-3-9-6-15-8-11-3-22 5-30 11l-1 1c-2 1-3 3-5 4-8 6-13 10-20 10-6 0-10-3-15-7-4-3-8-6-13-8-14-5-31 3-34 5-21 10-28 19-31 24-2 5-9 8-14 5-5-3-7-9-5-14 6-13 19-24 40-34 7-4 30-14 51-6 9 3 15 8 19 12 1 0 2 1 2 1 3-1 6-4 7-5 2-1 4-3 5-4l1-1c10-7 27-20 49-14 9 2 16 7 21 11 2 1 5 3 6 3 2 1 5 0 13-5 9-6 22-14 39-14l2 0c14 1 25 6 33 10 10 4 11 4 14 4 1-1 3-2 6-3 6-4 15-9 27-10 20-1 34 6 48 14 14 8 15 8 34-2 30-15 51 3 62 12 4 4 8 7 11 8 3 1 6 2 9 3l5 1c5 2 8 8 7 14z m-31-84c-3 2-8 2-11 0-18-12-36-12-53-3-12 6-15 7-17 7-2 0-5 0-6-1-1 0-4-1-8-4-13-7-26-14-45-14-1 0-3 0-5 0-13 1-22 6-28 9l-3 2c-2 1-6 1-9 0-2-1-4-2-5-3-8-3-20-9-34-10l-3 0c-18 0-31 9-41 15l-3 2c-4 2-9 2-12-1-5-3-13-9-23-11-3-1-7-1-11-1-17 0-31 10-40 17l-4 3c-4 2-9 3-13 0-4-4-9-6-14-8-5-2-11-3-18-3-15 0-29 6-35 9-1 1-3 1-4 2-3 0-6-1-9-3-2-2-3-5-3-8l0-3c0 0 0-1 0-2l21-88c1-5 5-8 10-8l407 0c6 0 10 4 11 9l13 85c1 4-1 9-5 11z m-445 147c6-2 10-6 14-12 1 0 2-1 3-2 2-1 6-4 12-7 1-1 2-1 3-2 4-1 8-1 11 2 8 7 19 14 35 14 17 0 31-11 40-18l4-3c3-3 8-3 12 0 5 3 12 7 21 9 4 1 8 1 12 1 18 0 31-8 40-14 2-1 5-3 7-4 2-1 3-1 5-1 1 0 3 0 4 1 1 0 4 2 7 3 9 4 20 10 35 10 6 0 12-1 17-3 7-2 13-5 18-8l1-1c3-1 5-1 8-1 2 1 5 2 12 6 15 9 29 14 41 14 12 0 22-3 36-10 4-2 9-1 12 2 7 6 16 13 27 17 3 1 6 1 8 2l2 1c3 1 6 4 7 7 1 4 0 7-2 10-20 23-122 135-240 135-111 0-194-101-216-132-2-2-3-6-2-9 1-3 3-5 6-7z m265 97c5 4 13-1 17-9 5-9 5-19 1-23-5-3-12 1-17 10-5 9-5 19-1 22z m-41-8c6 0 10-8 10-19 0-10-4-19-10-19-6 0-10 9-10 19 0 11 4 19 10 19z m-58-1c4 8 12 13 17 9 4-3 4-13-1-22-5-9-12-13-17-10-4 4-4 14 1 23z"/>
<glyph unicode="&#57375;" d="M476 337c-4 1-8 2-12 2-9 0-19-4-28-12-1 9-2 17-4 25-1 5-5 9-10 9l-343 0c-5 0-9-4-10-9-4-15-5-31-5-47 0-115 84-210 187-210 67 0 127 41 159 102 5-8 12-14 20-17 4-1 8-2 12-2 24 0 49 27 59 64 13 44 1 85-25 95z m4-89c-9-34-30-52-43-47-6 2-12 11-14 24 8 22 13 45 14 70 8 14 19 22 27 22 2 0 3 0 5 0 13-5 21-35 11-69z m-182 136c7 0 11 5 11 11l0 61c0 6-4 11-11 11-6 0-10-5-10-11l0-61c0-6 4-11 10-11z m-47 0c6 0 10 5 10 11l0 106c0 6-4 11-10 11-6 0-11-5-11-11l0-106c0-6 5-11 11-11z m-48 0c6 0 11 5 11 11l0 61c0 6-5 11-11 11-6 0-11-5-11-11l0-61c0-6 5-11 11-11z m193-244c-38-41-89-66-145-66-57 0-108 25-146 66-60-15-99-37-99-63 0-42 109-77 245-77 135 0 244 35 244 77 0 26-39 48-99 63z"/>
<glyph unicode="&#57376;" d="M108 386c1 0 3-1 4-1 24 0 41 15 53 25 9 8 15 13 20 13 1 0 1-1 1-1 6 0 13-3 20-6 10-4 20-9 33-10 5-1 10-1 15-1 17 0 33 3 47 10l3 1c13 6 20 9 30 9 0 0 1 0 2 0 5 0 13-4 21-7 7-4 16-8 25-11 10-2 25-5 41-5 5 0 10 0 15 1 17 2 29 10 39 16 4 2 7 4 11 7l2 1c6 3 10 9 11 15 2 6 1 13-2 19-5 8-13 13-22 13-4 0-9-2-12-4l-2-1c-4-2-8-5-13-7-7-5-13-9-19-10-3 0-5 0-8 0-9 0-18 1-28 4-5 1-10 4-17 7-11 5-24 12-40 12-1 1-3 1-4 1-21 0-36-7-51-14l-3-2c-8-3-16-5-26-5-3 0-6 0-9 0-5 1-12 4-19 7-10 4-21 9-35 10-2 1-4 1-6 1-24 0-41-14-53-25-9-7-15-12-21-12l-1 0c-14 0-25-10-25-23-1-7 1-14 6-19 4-5 10-8 17-8z m108-91l3 1c10 4 18 6 25 6 2 0 5 0 7-1 6-1 13-5 20-10 7-5 15-10 24-14 11-4 32-12 54-12l1 0c17 1 30 7 41 12 4 1 7 3 10 4 0 0 3 2 3 2 7 2 11 7 14 14 2 6 2 12-1 18-4 9-13 15-23 15-4 0-7 0-10-2-5-2-10-4-14-6-8-4-14-6-21-6l-1 0c-9 0-22 3-34 8-4 2-10 5-16 9-10 7-22 15-38 18-5 1-11 1-16 1-15 0-27-4-40-8l-3-1c-6-2-12-3-18-3-6 0-12 1-18 3-5 1-11 5-18 9-9 5-20 12-33 15-4 1-9 1-14 1-20 0-35-10-48-18-7-5-15-9-20-9-1 0-1 0-2 0-1 0-3 0-5 0-12 0-22-8-24-20-2-6-1-13 3-19 4-5 9-9 16-10 4-1 8-2 12-2 20 0 35 10 48 18 8 6 15 10 20 10 1 0 2 0 3 0 5-1 11-5 19-9 8-6 18-11 30-15 10-2 21-4 31-4 11 0 22 2 33 5z m295-8c-2 6-6 12-12 15-4 2-8 3-12 3-9 0-18-5-22-13l-1-1c-2-4-5-9-7-13-4-8-7-14-12-18-7-6-20-12-32-15-5-2-12-2-19-3-12-1-27-2-41-9-20-11-31-26-40-40l-2-2c-7-10-16-18-28-22-5-3-12-3-20-4-10-2-23-3-35-9-25-11-33-34-39-51-4-11-6-19-11-21-13-6-18-21-12-34 5-8 13-14 23-14 4 0 8 1 11 3 24 12 31 34 37 50 4 12 7 19 12 21 5 3 13 4 21 5 10 1 21 3 33 7 20 9 37 23 49 40l2 3c9 12 13 18 23 24 4 2 13 3 22 3 8 1 17 2 27 4 11 4 33 11 50 25 14 11 20 23 26 34 2 3 3 7 6 11l1 2c3 5 4 12 2 19z"/>
<glyph unicode="&#57377;" d="M507 187c0 1-51 112-182 83-12-17-23-26-26-28-2-2-5-4-8-5 0 0-28-12-46-36 1 0 2 1 3 1l14 3c6 1 11-3 13-8 1-6-3-12-9-13l-13-3c-1 0-2 0-3 0-4 0-9 3-10 8 0 1 0 2 0 3-3-5-6-11-7-17-15-52-52-89-89-111 4 0 8-1 12-1 24 0 53 5 81 21 48 27 103 5 104 4 1 0 2 0 3 0 2-1 62-7 112 41 0 0 13 10 28 11 15 2 22 9 25 15 7 14-1 30-2 32z m-247-54l-14-3c-1 0-2 0-2 0-5 0-10 4-11 9-1 5 3 11 8 12l14 3c6 2 12-2 13-8 1-6-3-11-8-13z m60 82l13 3c6 1 12-2 13-8 1-6-2-12-8-13l-14-3c-1 0-1 0-2 0-5 0-9 3-11 8-1 6 3 12 9 13z m20-72c0 0 0 0-1 0l-14 1c-5 0-10 5-10 10 0 6 5 11 11 11l14 0c6 0 10-5 10-11 0-6-5-11-10-11z m71 35c0 0 0 0-1 0l-14 0c-5 0-10 5-10 11 0 6 5 10 11 10l14 0c6 0 10-5 10-11 0-6-5-10-10-10z m-55 245c-4 15-22 21-23 21-1 1-23 9-54 9-39 0-94-14-136-79 0-1 0-1 0-2-1 0-25-53-74-81-57-32-81-141-63-187 11-30 31-45 57-45l0 0c11 0 24 2 38 7 40 15 94 53 111 115 15 53 71 76 71 76 1 0 2 1 3 2 2 1 49 39 51 108 0 0 2 16 12 28 9 12 9 21 7 28z m-264-286l-7-12c-2-4-5-6-9-6-2 0-3 1-5 2-5 2-7 9-4 14l6 12c3 5 10 7 15 4 5-2 7-9 4-14z m7 70l-7-12c-2-4-6-6-9-6-2 0-4 1-6 2-5 3-7 9-4 14l7 12c3 5 9 7 14 5 6-3 7-10 5-15z m43-31l-7-12c-2-4-6-6-9-6-2 0-4 1-5 2-6 3-8 9-5 14l7 12c3 5 9 7 14 5 5-3 7-10 5-15z m-1 86l-9-10c-2-2-5-3-8-3-3 0-5 1-7 3-5 4-5 11 0 15l9 10c4 4 11 4 15 0 5-5 5-11 0-15z m37-34l-6-12c-2-4-6-6-10-6-2 0-3 1-5 2-5 2-7 9-4 14l6 12c3 5 10 7 15 4 5-2 7-9 4-14z m7 84c-3 0-6 1-8 3-4 4-4 11 0 15l10 9c4 5 11 5 15 0 4-4 4-10 0-15l-10-9c-2-2-4-3-7-3z m43-30l-10-9c-2-2-5-3-7-3-3 0-6 1-8 4-4 4-4 11 1 15l10 9c4 4 11 4 15-1 4-4 3-11-1-15z m6 80c-3 0-6 1-8 3-4 4-4 11 0 15l10 10c4 4 11 4 15 0 4-4 4-11 0-15l-10-10c-2-2-5-3-7-3z m41-29l-11-9c-2-2-4-3-7-3-3 0-6 1-8 4-4 4-3 11 1 15l10 9c5 4 11 4 15-1 4-4 4-11 0-15z"/>
<glyph unicode="&#57378;" d="M346 247c-2 2-4 4-5 5 0 1-1 4-3 7-7 15-24 51-22 79 4 30-17 55-36 67-1 1-3 2-4 2l-4 0c0 17 3 64 32 86 4 3 5 10 2 15-4 4-10 5-15 2-16-12-26-29-32-46-15 10-32 15-49 15-42 0-72-31-73-33-3-2-4-5-3-9 1-3 3-6 6-7 28-14 52-20 72-20l0 0c18 0 30 5 39 13 0-5-1-10-1-13-1 0-2 0-3-1-17-4-46-18-52-61-7-52-16-82-47-123-23-29-39-83-27-131 10-36 35-64 73-81 21-9 42-13 63-13l0 0c37 0 72 14 98 40 25 24 40 58 40 91 0 66-34 101-49 116z"/>
<glyph unicode="&#57379;" d="M427 280c-17 12-32 23-46 33-46 36-83 64-133 78-12 4-24 6-34 6-26 0-39-12-45-21-56 25-44 88-41 100 7 7 14 12 24 15 6 2 9 8 7 14-2 5-8 8-13 7-67-21-69-112-68-143-2-1-3-1-4-3-2-2-53-58-49-169 4-107 28-182 61-196 2-1 3-1 5-1 0 0 0 0 1 0 5 1 48 7 54 102 1 20 3 38 4 56 5 58 9 104-5 154-11 41-31 54-46 58 0 12 0 36 6 60 4-30 21-60 61-76 6-18 33-78 116-125 66-39 127-61 166-61 0 0 0 0 0 0 14 0 25 3 33 8 1 1 2 3 3 4 2 5 19 45-57 100z m-337-184c-12 0-21 10-21 21 0 12 9 21 21 21 11 0 21-9 21-21 0-11-10-21-21-21z m2 78c-15 0-26 12-26 26 0 14 11 25 26 25 14 0 25-11 25-25 0-14-11-26-25-26z m24 105c0-12-9-22-21-22-12 0-22 10-22 22 0 12 10 22 22 22 12 0 21-10 21-22z m152 39c-7-11-22-14-33-7-11 6-14 21-7 32 7 11 21 14 32 7 11-7 15-21 8-32z m66-47c-8-13-25-17-38-9-12 8-16 25-8 38 8 12 25 16 37 8 13-8 17-25 9-37z m67-41c-6-10-19-13-29-6-10 6-13 19-7 29 6 10 19 13 29 6 10-6 13-19 7-29z"/>
<glyph unicode="&#57380;" d="M502 386c-4 0-8 1-13 2 0 1-1 3-2 4-4 4-11 4-15 0l-1-1c-19 5-37 13-53 23l16 16c4 4 4 11 0 15-4 4-11 4-15 0l-19-19c-16 12-29 25-40 36l21 21c4 4 4 11 0 15-4 4-11 4-15 0l-20-20c-8 8-12 14-12 15-3 5-10 6-15 3-5-4-6-10-3-15 1-1 6-9 15-19l-31-31c-8 9-12 15-12 15-4 5-10 7-15 3-5-3-6-10-3-15 1-1 6-8 14-18l-24-24c-2-2-4-5-6-8-8 10-12 16-13 16-3 5-10 6-14 3-5-3-7-10-3-15 1-1 7-10 18-23-4-10-6-21-6-33 0-19 6-37 18-52l-251-251c-4-4-4-11 0-15 2-2 5-3 8-3 2 0 5 1 7 3l251 251c15-12 33-18 52-18 0 0 0 0 1 0 16 0 32 4 46 13 4-5 29-40 24-79 0-6 4-11 10-12 0 0 1 0 1 0 5 0 10 4 11 9 5 49-25 90-30 96l1 1c8-1 15-2 23-3 0 0 1 0 1 0 5 0 10 5 10 11 1 5-4 10-10 11-1 0-3 0-5 0l27 28c8-2 16-3 24-3 0 0 0 0 0 0 6 0 10 4 11 10 0 6-5 11-10 11-2 0-4 0-6 1l28 27c7-2 15-3 23-3 0 0 0 0 0 0 6 0 11 4 11 10 0 6-4 11-10 11z m-157 60c11-11 24-23 40-35l-31-31c-16 12-30 24-40 35z m-70-69l24 23c10-11 24-24 39-36l-30-30c-16 11-29 23-40 34 2 3 5 6 7 9z m-6-82c-8 11-12 24-12 37 0 5 1 10 2 15 9-9 20-19 33-29z m53-27c-1 0-1 0-1 0-13 0-26 4-37 12l26 26c15-10 32-18 51-24-11-9-25-14-39-14z m56 31c-19 5-37 13-52 22l30 31c16-10 33-18 51-24z m47 46c-20 5-37 13-53 23l31 30c15-9 32-18 51-24z"/>
<glyph unicode="&#57381;" d="M482 364l11 93c1 8-5 16-13 17-9 1-16-5-17-14l-14-110c-13-5-28-9-44-13l6 121c0 8-6 15-14 16-9 0-16-6-16-15l-6-127c0 0 0-1 0-2-8-1-15-2-23-4 0 1 0 1 0 2l-19 170c-1 8-8 14-17 13-8-1-14-8-13-17l19-169c0-1 0-2 0-2-16-2-33-3-49-3l15 114c1 9-5 16-13 17-8 2-16-4-17-13l-16-118c-7 0-13 0-19 1l11 174c1 8-6 16-14 16-8 1-16-6-16-14l-12-174c-1 0-3 0-5 1 1 2 1 4 0 6l-36 124c-2 8-11 13-19 11-8-3-13-11-10-19l34-118c-1 0-3 0-5 1 0 0 0 1 0 2l-48 143c-2 8-11 12-19 9-8-2-12-11-9-19l42-129c-9 3-18 5-26 7l-62 123c-4 8-13 11-21 7-7-4-10-13-6-20l47-95c-16 7-31 15-45 23l83-379 342 0 83 379c-9-6-19-11-30-16z m-224-280c-45 0-81 37-81 84 0 47 36 85 81 85 45 0 81-38 81-85 0-47-36-84-81-84z"/>
<glyph unicode="&#57382;" d="M0 318l26-226c0-51 42-92 92-92l276 0c50 0 92 41 92 92l26 226z m251 22l24 0c-15 47-59 82-110 82-52 0-96-35-111-82l24 0c14 35 47 60 87 60 39 0 73-25 86-60z m-144 0l29 0c8 7 18 11 29 11 11 0 21-4 28-11l29 0c-11 20-33 33-57 33-25 0-46-13-58-33z m58 105c64 0 118-45 133-105l23 0c-3 16-9 31-16 44 8 8 19 12 30 12 25 0 45-20 45-45 0-3 0-7-1-11l22 0c1 4 1 8 1 11 0 37-30 68-67 68-16 0-31-6-43-16-5 7-11 13-17 19 17 15 38 23 60 23 52 0 93-42 93-94 0-3 0-7 0-11l22 0c0 4 1 8 1 11 0 64-52 116-116 116-28 0-56-11-77-30-7 4-13 9-20 12 25 26 60 41 97 41 76 0 138-62 138-139 0-3 0-7 0-11l22 0c0 4 1 8 1 11 0 89-72 161-161 161-46 0-89-20-119-54-16 6-33 9-51 9-77 0-141-54-157-127l23 0c15 60 69 105 134 105z"/>
<glyph unicode="&#57383;" d="M6 240c0-2-1-5-1-7 0-93 61-172 148-208l0-25 206 0 0 25c87 36 148 115 148 208 0 2-1 5-1 7l-500 0z m88 30l112 0c2 16-2 34-12 47l62 76 62-76c-10-13-14-31-12-47l138 0c-1 2-2 4-4 6 0 1 0 2-1 3l-33 41c-10 12-24 19-40 20-11 1-23-2-32-8l-64 78 68 84c4 5 3 12-1 16-5 3-12 3-16-2l-65-80-65 80c-4 5-11 5-16 2-4-4-5-11-1-16l68-84-64-78c-9 6-21 9-32 8-16-1-30-8-40-20l-33-41c-1-1-1-2-1-3-2-2-3-4-4-6z"/>
<glyph unicode="&#57384;" d="M264 398c7-3 158-83 150-218 13 8 32 17 53 16 17-1 32-8 45-20 8 187-207 270-210 271 0 0-1 1-1 1-13 3-24 0-32-9-11-11-13-29-14-41 3 2 6 2 9 0z m241-246c-12 14-25 22-39 23-28 1-54-23-54-23-2-2-4-3-7-3l-397-30 22-49c2-4 6-7 10-7 0 0 0 0 1 0l437 34c5 1 8 3 10 7l18 47c-1 1-1 1-1 1z m-251 227c-3 2-4 4-5 7l-246-238c-2-2-3-5-3-8l391 29c18 128-135 209-137 210z m-61-166c-8 0-15 5-15 11 0 7 7 12 15 12 9 0 16-5 16-12 0-6-7-11-16-11z m57 88c0 4 8 8 17 8 10 0 18-4 18-8 0-5-8-9-18-9-9 0-17 4-17 9z m45-88c-11 0-20 7-20 15 0 9 9 15 20 15 11 0 20-6 20-15 0-8-9-15-20-15z"/>
<glyph unicode="&#57385;" d="M346 247c-2 2-4 4-5 5 0 1-1 4-3 7-7 15-24 51-22 79 4 30-17 55-36 67-1 1-3 2-4 2l-4 0c0 17 3 64 32 86 4 3 5 10 2 15-4 4-10 5-15 2-16-12-26-29-32-46-15 10-32 15-49 15-42 0-72-31-73-33-3-2-4-5-3-9 1-3 3-6 6-7 28-14 52-20 72-20l0 0c18 0 30 5 39 13 0-5-1-10-1-13-1 0-2 0-3-1-17-4-46-18-52-61-7-52-16-82-47-123-23-29-39-83-27-131 10-36 35-64 73-81 21-9 42-13 63-13l0 0c37 0 72 14 98 40 25 24 40 58 40 91 0 66-34 101-49 116z"/>
<glyph unicode="&#57386;" d="M294 503c-8 6-18 9-27 9-14 0-24-6-27-8-16-8-188-89-220-121-12-11-17-23-16-36 2-23 23-38 26-40 1 0 1-1 2-1 1 0 31-11 87-57 52-43 89-80 89-81 2-2 5-3 8-3 1 0 2 0 4 1 20 9 82 35 82 35 4 2 7 6 7 10l-10 284c0 3-2 6-5 8z m-137-455c-12 10-20 41-23 69-11 2-20 6-27 9-7 3-11 5-15 5-1 0-1 0-2 0-7-1-16-3-24-5-10-3-22-6-34-7 13-53 57-99 84-113 8-4 16-6 25-6 15 0 26 6 30 16 2 6 3 18-14 32z m-132 238c0 0-1 0-1 0-16-41-28-105-22-126 7-27 36-20 59-14 9 3 18 5 26 6 12 2 20-3 29-7 8-3 16-7 25-7 5 0 11 1 17 5 9 5 17 13 23 22-14 14-41 40-76 68-51 42-80 53-80 53z m453 53c-2-4-4-8-7-13-13-22-34-58-41-71 10-11 20-23 25-33 10-23 20-41 21-42 2-3 5-5 8-5 0 0 1 0 1 0 3 0 6 1 8 3 41 46 6 123-15 161z m-18 56c-1 0-1 0-1 1-40 50-101 64-138 68l8-211c15-1 33-2 43-4 4-1 8-2 11-2 15 0 23 8 25 13 1 1 28 49 45 77 20 34 8 55 7 58z"/>
<glyph unicode="&#57387;" d="M287 429c6 36 32 63 32 63 5 5 5 12 1 16-4 5-10 5-15 1-1-1-34-34-39-80 7 0 15 2 21 0z m-1-25l0-320c54 14 97 51 110 99l1 0c0 0-1 1-1 2 2 12 3 24 3 36 0 96-50 175-113 183z m1 24c0-1 0-1 0-2 74-8 133-97 133-205 0-13-1-26-3-38l31 0c-2-22-8-43-20-63-1-1-1-2-1-3-35-57-107-96-191-96-113 0-205 72-212 162l53 0c6-23 19-44 37-61 14-13 31-23 51-31-21 37-33 82-33 130 0 109 59 198 134 205 0 1 0 1 0 2-124-5-224-89-224-193 0-11 1-21 3-31l-32 0c-6 0-10-5-10-11 0-106 104-193 233-193 91 0 170 43 208 105l4 1c2 1 4 2 5 3 36 35 56 80 56 126 0 103-98 188-222 193z m-92-345c1 0 1-1 1-1 13-3 26-5 40-5 10 0 20 1 29 2l0 325c-63-8-112-87-112-183 0-53 16-103 42-138z"/>
<glyph unicode="&#57388;" d="M390 349c-24 70 42 123 44 125 3 2 4 6 4 9 0 3-1 6-4 8-20 14-42 21-65 21-52 0-95-34-112-50-21 21-45 31-73 31-63 0-120-57-123-59-3-3-4-7-2-11 1-4 4-7 8-7 23-4 38-13 46-26 9-16 3-36 1-41-67-85-94-161-82-227 13-69 66-100 68-101 0 0 1 0 2-1 2-1 59-20 148-20 0 0 0 0 0 0 52 0 104 7 155 20 36 10 60 30 71 60 34 93-74 252-86 269z m-77-49c4 3 10 2 14-1 5-6 49-55 38-91-1-12-10-33-35-33l-1 0c-2 0-11 1-19 10-8 8-11 20-9 36 1 13 4 23 7 32 4 12 7 19 1 34-2 5 0 11 4 13z m-77-14c1 14 4 24 7 32 4 12 6 20 0 35-2 5 0 10 4 13 4 3 10 2 13-2 6-5 50-53 41-90-2-12-10-33-36-33 0 0 0 0 0 0-1 0-11 0-19 9-8 8-11 20-10 36z m-89 68c2 3 5 4 8 4 1 0 1 0 2 0 29-1 69-34 74-38 5-4 5-11 1-15-2-3-5-4-8-4-2 0-5 1-7 3-12 10-34 25-51 30 5-16 20-39 31-52 3-4 3-11-2-15-2-1-4-2-7-2-3 0-6 1-8 4-4 4-36 45-37 75 0 1 0 1 0 2 0 3 1 6 4 8z m-19-109c3 4 9 6 13 4 14-6 22-4 34 0 8 3 18 6 32 7 2 0 4 0 5 0 31 0 39-19 39-29 0-25-19-35-33-37-3-1-7-1-11-1l0 0c-34 0-73 38-77 42-4 4-5 10-2 14z m155-121c-3-1-7-1-11-1-34 0-74 37-78 41-4 3-4 9-2 13 3 5 9 6 13 4 14-5 22-3 34 1 8 3 18 6 32 8 2 0 5 0 7 0 29 0 37-19 38-29 0-24-19-35-33-37z m54-4c-1-5-6-9-11-9 0 0-1 0-2 0-6 2-9 7-8 13 0 1 7 34 46 48 6 2 12 0 14-6 2-5-1-12-6-14-28-10-33-32-33-32z m85-55c-2-2-5-3-7-3-3 0-6 1-8 3l-55 55c-4 5-4 11 1 16 4 4 11 4 15-1l54-55c4-4 4-11 0-15z"/>
<glyph unicode="&#57389;" d="M286 221l-65 65c-19 19-43 29-67 29-19 0-35-6-47-18-29-29-24-80 11-115l64-64c19-19 44-30 68-30 18 0 35 7 47 19 14 14 20 34 18 56-3 21-13 42-29 58z m204 269c-14 14-33 22-53 22-20 0-39-8-53-22-14-14-22-33-22-53 0-16 6-32 15-45l-43-43-25 25c-19 19-43 30-67 30-19 0-35-7-47-19-14-13-19-32-18-51 21-5 42-16 59-33l65-65c17-17 28-38 33-59 1-1 3-1 4-1 18 0 35 7 47 19 14 14 21 34 18 56-2 21-13 42-29 58l-25 25 50 50c5 4 5 11 0 15-10 10-15 24-15 38 0 14 5 28 15 38 10 10 24 16 38 16 14 0 28-6 38-16 10-10 16-24 16-38 0-14-6-28-16-38-4-4-4-11 0-15 2-2 5-3 8-3 2 0 5 1 7 3 14 14 22 33 22 53 0 20-8 39-22 53z m-323-387l-64 64c-18 18-29 39-33 60-2 0-3 0-5 0-18 0-35-6-47-18-28-29-23-80 12-115l24-24-50-51c-4-4-4-11 0-15 2-2 5-3 8-3 2 0 5 1 7 3l51 50 24-24c19-19 44-30 68-30 18 0 35 7 47 18 13 14 19 32 18 51-22 5-43 17-60 34z"/>
</font>
</defs>
</svg>
